Register  ·  Log in
Forgot password?

  • Джон Доу. Мститель / John Doe: Vigilante (Келли Долен / Kelly Dolen) [2014, Австралия, Триллер, криминал, HDRip] DVO (den904 & DeadSno)

    Reply to topic
    Author Message


    Post 26-Oct-2015 13:30



    Джон Доу. Мститель / John Doe: Vigilante
    Страна: Австралия
    Жанр: Триллер, криминал
    Год выпуска: 2014
    Продолжительность: 01:33:24
    Перевод: Любительский (двухголосый закадровый) [den904 & DeadSno]
    Cубтитры: нет
    Режиссер: Келли Долен / Kelly Dolen
    В ролях: Джэйми Бамбер, Дэниэль Лиссинг, Пол ОБрайен, Дитч Дэйви, Харри Павлидис, Луиз Кроуфорд, Флетчер Хамфрис, Бен Шуманн, Деннис Илик, Брук Райан, Брендан Клиркин, Сэм Парсонсон, Хлоэ Гаймер, Ричард Ламбет
    Описание: Некоторые называют его героем. Некоторые - злодеем. Он - Джон Доу - обычный человек, который решает взять закон в свои руки. Разочарованный правовой системой, которая позволяет преступникам разгуливать на свободе, Джон Доу начинает сам вершить правосудие единственным известным ему методом - убивая преступников...

    Качество видео: HDRip
    Формат видео: AVI
    Видео: XviD, 720x304, 24.000 fps, ~1880 Kb/s
    Аудио: 48 kHz, AC3, 2/0 ch, ~192 kbps


    Complete name : Dzhon.Dou.2014.L2.HDRip.avi
    Format : AVI
    Format/Info : Audio Video Interleave
    File size : 1.36 GiB
    Duration : 1h 33mn
    Overall bit rate : 2 082 Kbps
    Writing application : VirtualDubMod | || (build 2550/release)
    Writing library : VirtualDubMod build 2550/release
    Video #0
    ID : 0
    Format : MPEG-4 Visual
    Format profile : Advanced Simple@L5
    Format settings, BVOP : 1
    Format settings, QPel : No
    Format settings, GMC : No warppoints
    Format settings, Matrix : Custom
    Codec ID : XVID
    Codec ID/Hint : XviD
    Duration : 1h 33mn
    Bit rate : 1 880 Kbps
    Width : 720 pixels
    Height : 304 pixels
    Display aspect ratio : 2.35:1
    Frame rate : 24.000 fps
    Color space : YUV
    Chroma subsampling : 4:2:0
    Bit depth : 8 bits
    Scan type : Progressive
    Compression mode : Lossy
    Bits/(Pixel*Frame) : 0.358
    Stream size : 1.23 GiB (90%)
    Writing library : XviD 73
    Audio #1
    ID : 1
    Format : AC-3
    Format/Info : Audio Coding 3
    Mode extension : CM (complete main)
    Format settings, Endianness : Big
    Codec ID : 2000
    Duration : 1h 33mn
    Bit rate mode : Constant
    Bit rate : 192 Kbps
    Channel(s) : 2 channels
    Channel positions : Front: L R
    Sampling rate : 48.0 KHz
    Bit depth : 16 bits
    Compression mode : Lossy
    Stream size : 128 MiB (9%)
    Alignment : Split accross interleaves
    Interleave, duration : 42 ms (1.00 video frame)
    Interleave, preload duration : 500 ms

    Скриншот c названием фильма


    Download .torrent

    Download free and at maximum speed!

    How to Download? · What is a torrent? · Ratings and Limitations

    The site does not extend and does not store electronic(digital) versions of products, and only gives access to a reference catalogue created by users on torrent-files which contain only lists of the hash-sums, the earnest entreaty, with complaints(abuse) to access directly to the user. Files for an exchange on tracker are given by users of a site, and the administration does not bear the responsibility for their maintenance. The request to not fill in the files protected by copyrights, and also files of the illegal maintenance!

    [Profile] [PM]
    Display posts from previous:    
    Reply to topic

    The time now is: Today 22:43

    All times are GMT + 3 Hours

    You cannot post new topics in this forum
    You cannot reply to topics in this forum
    You cannot edit your posts in this forum
    You cannot delete your posts in this forum
    You cannot vote in polls in this forum
    You cannot attach files in this forum
    You cannot download files in this forum