Register  ·  Log in
Forgot password?

  • Армагеддец / The World\'s End (Эдгар Райт / Edgar Wright) [2013, Великобритания, Комедия, фантастика, боевик, BDRip] Dub

    Reply to topic
    Author Message


    Post 26-Oct-2015 05:06



    Армагеддец / The World's End
    «Убойные напитки. Отличная закуска. На десерт – конец света»
    -Год выпуска: 2013
    Выпущено: Великобритания, США, Япония / Relativity Media
    Жанр: комедия, фантастика, боевик
    Продолжительность: 01:49:07
    Перевод: Профессиональный (полное дублирование) BD CEE |Лицензия|
    Cубтитры: нет-Режиссер:
    Эдгар Райт / Edgar Wright-В ролях:
    Саймон Пегг (Gary King), Ник Фрост (Andy Knightley), Пэдди Консидайн (Steven Prince), Мартин Фриман (Oliver Chamberlain), Эдди Марсан (Peter Page), Розамунд Пайк (Sam Chamberlain), Пирс Броснан (Guy Shepherd), Дэвид Брэдли (Basil), Майкл Смайли (Reverend Green), Стив Орам (Motorcycle Policeman)-Описание:
    Их подвиг был бы увековечен в Книге рекордов Гиннесса, если бы они знали, что Гиннесс — это не только пиво. Пятеро друзей ставят себе высокую цель — организовать грандиозный забег по барам. Опасности подстерегают их на каждом шагу: красотка, от которой сходила с ума вся школа, так и тянет налево, в то время как справа надвигается таинственная угроза. В результате алкомарафон плавно переходит в реальный Армагеддец…-Релиз групп
    | | IMDB | КиноПоиск | Сэмпл |-Качество: BDRip [Blu-ray Disc | 1080p | HDCLUB]
    Формат: AVI
    Видео: 720x304 (2.37:1), 23.976 fps, XviD build 73 ~1518 kbps avg, 0.29 bit/pixel
    Аудио: 48 kHz, AC3 Dolby Digital, 3/2 (L,C,R,l,r) + LFE ch, ~384.00 kbps avg-



    Complete name                            : D:\Armageddec_2013_BDRip_by_Dalemake.avi
    Format                                   : AVI
    Format/Info                              : Audio Video Interleave
    File size                                : 1.46 GiB
    Duration                                 : 1h 49mn
    Overall bit rate                         : 1 912 Kbps
    Writing application                      : VirtualDubMod | || (build 2550/release)
    Writing library                          : VirtualDubMod build 2550/release
    ID                                       : 0
    Format                                   : MPEG-4 Visual
    Format profile                           : Advanced Simple@L5
    Format settings, BVOP                    : 1
    Format settings, QPel                    : No
    Format settings, GMC                     : No warppoints
    Format settings, Matrix                  : Custom
    Codec ID                                 : XVID
    Codec ID/Hint                            : XviD
    Duration                                 : 1h 49mn
    Bit rate                                 : 1 519 Kbps
    Width                                    : 720 pixels
    Height                                   : 304 pixels
    Display aspect ratio                     : 2.35:1
    Frame rate                               : 23.976 fps
    Color space                              : YUV
    Chroma subsampling                       : 4:2:0
    Bit depth                                : 8 bits
    Scan type                                : Progressive
    Compression mode                         : Lossy
    Bits/(Pixel*Frame)                       : 0.289
    Stream size                              : 1.16 GiB (79%)
    Writing library                          : XviD 73
    ID                                       : 1
    Format                                   : AC-3
    Format/Info                              : Audio Coding 3
    Mode extension                           : CM (complete main)
    Format settings, Endianness              : Big
    Codec ID                                 : 2000
    Duration                                 : 1h 49mn
    Bit rate mode                            : Constant
    Bit rate                                 : 384 Kbps
    Channel(s)                               : 6 channels
    Channel positions                        : Front: L C R, Side: L R, LFE
    Sampling rate                            : 48.0 KHz
    Bit depth                                : 16 bits
    Compression mode                         : Lossy
    Stream size                              : 300 MiB (20%)
    Alignment                                : Split accross interleaves
    Interleave, duration                     : 42 ms (1.00 video frame)
    Interleave, preload duration             : 500 ms
    Download .torrent

    Download free and at maximum speed!

    How to Download? · What is a torrent? · Ratings and Limitations

    The site does not extend and does not store electronic(digital) versions of products, and only gives access to a reference catalogue created by users on torrent-files which contain only lists of the hash-sums, the earnest entreaty, with complaints(abuse) to access directly to the user. Files for an exchange on tracker are given by users of a site, and the administration does not bear the responsibility for their maintenance. The request to not fill in the files protected by copyrights, and also files of the illegal maintenance!

    [Profile] [PM]
    Display posts from previous:    
    Reply to topic

    The time now is: Today 21:53

    All times are GMT + 3 Hours

    You cannot post new topics in this forum
    You cannot reply to topics in this forum
    You cannot edit your posts in this forum
    You cannot delete your posts in this forum
    You cannot vote in polls in this forum
    You cannot attach files in this forum
    You cannot download files in this forum