BitTorrentTracker PerecTracker.org
BitTorrentTracker PerecTracker.org
    
Регистрация  ·  Вход
 
 · 
Забыли пароль?

  • Никогда не сдавайся 2 / Never Back Down 2: The Beatdown (Майкл Джей Уайт / Michael Jai White) [2011, США, Драма, спорт, боевик, WEB-DLRip] MVO (R5) + Original (Eng) + Subs (Rus, Eng)

    Ответить на тему
     
    Автор Сообщение

    Light

    Создавать темы 26-Окт-2015 04:06

           

    [Цитировать]

    Никогда не сдавайся 2 / Never Back Down 2: The Beatdown-Год выпуска: 2011
    Выпущено: США / Mandalay Pictures
    Жанр: драма, спорт, боевик
    Продолжительность: 01:39:17
    Перевод: Профессиональный (многоголосый закадровый) R5 / Видеосервис |Лицензия|
    Cубтитры: Русские, Английские (внешние .srt*)
    Оригинальная аудиодорожка: Английская-Режиссер:
    Майкл Джей Уайт / Michael Jai White-В ролях:
    Алекс Мераз (Zack Gomes), Эван Питерс (Max Cooperman), Майкл Джей Уайт (Case Walker), Джиллиан Мюррэй (Eve), Тодд Даффи (Tim Newhouse), Скотти Эпштейн (Justin Epstein), Дин Гейер (Mike Stokes), Стейси Асаро (Receptionist), Грэйлен Брайант Бэнкс (Frankie), Рас Блэквелл (Caucasian Cop)-Описание:
    За закрытыми дверями обычного колледжа разворачивается подготовка к… подпольному турниру по боям без правил На звание чемпиона претендуют четыре студента — бойцы четырех разных школ, обучить которых самым изобретательным боевым техникам предстоит звезде микс файта Кейсу Уокеру.
    У каждого свои преимущества и свои слабые стороны, и только финальный бой выявит сильнейшего. Грядет самый беспощадный чемпионат из когда-либо проводившихся…-Релиз групп
    | | IMDB | КиноПоиск | Сэмпл |-Качество: WEB-DLRip [WEB-DL 1080p]
    Формат: AVI
    Видео: 704x400 (1.76:1), 25 fps, XviD build 67 ~1711 kbps avg, 0.24 bit/pixel
    Аудио #1: 48 kHz, AC3 Dolby Digital, 3/2 (L,C,R,l,r) + LFE ch, ~384.00 kbps avg (RUS)
    Аудио #2: 48 kHz, AC3 Dolby Digital, 3/2 (L,C,R,l,r) + LFE ch, ~384.00 kbps avg (ENG) отдельно-

    Скриншоты

    MediaInfo

    General
    Complete name                            : D:\Nikogda_ne_sdavaisya_2_2011_WEB-DLRip_by_Dalemake.avi
    Format                                   : AVI
    Format/Info                              : Audio Video Interleave
    File size                                : 1.46 GiB
    Duration                                 : 1h 39mn
    Overall bit rate                         : 2 104 Kbps
    Writing application                      : VirtualDubMod 1.5.10.3 | www.virtualdub-fr.org || (build 2550/release)
    Writing library                          : VirtualDubMod build 2550/release
    Video
    ID                                       : 0
    Format                                   : MPEG-4 Visual
    Format profile                           : Advanced Simple@L5
    Format settings, BVOP                    : 1
    Format settings, QPel                    : No
    Format settings, GMC                     : No warppoints
    Format settings, Matrix                  : Custom
    Codec ID                                 : XVID
    Codec ID/Hint                            : XviD
    Duration                                 : 1h 39mn
    Bit rate                                 : 1 711 Kbps
    Width                                    : 704 pixels
    Height                                   : 400 pixels
    Display aspect ratio                     : 16:9
    Frame rate                               : 25.000 fps
    Color space                              : YUV
    Chroma subsampling                       : 4:2:0
    Bit depth                                : 8 bits
    Scan type                                : Progressive
    Compression mode                         : Lossy
    Bits/(Pixel*Frame)                       : 0.243
    Stream size                              : 1.19 GiB (81%)
    Writing library                          : XviD 67
    Audio
    ID                                       : 1
    Format                                   : AC-3
    Format/Info                              : Audio Coding 3
    Mode extension                           : CM (complete main)
    Format settings, Endianness              : Big
    Codec ID                                 : 2000
    Duration                                 : 1h 39mn
    Bit rate mode                            : Constant
    Bit rate                                 : 384 Kbps
    Channel(s)                               : 6 channels
    Channel positions                        : Front: L C R, Side: L R, LFE
    Sampling rate                            : 48.0 KHz
    Bit depth                                : 16 bits
    Compression mode                         : Lossy
    Stream size                              : 272 MiB (18%)
    Alignment                                : Split accross interleaves
    Interleave, duration                     : 40 ms (1.00 video frame)
    Interleave, preload duration             : 500 ms
    -
    Скачать .torrent

    Скачать торрент-файл бесплатно и на максимальной скорости!

    Как скачивать? · Что такое торрент? · Рейтинг и ограничения

    !ВНИМАНИЕ!
    Сайт не распространяет и не хранит электронные версии произведений, а занимается лишь лишь предоставлением доступа к создаваемому пользователями каталогу ссылок на торрент-файлы, которые содержат только списки хеш-сумм, убедительная просьба с жалобами обращаться напрямую к пользователю. Файлы для обмена на трекере предоставлены пользователями сайта, и администрация не несёт ответственности за их содержание. Просьба не заливать файлы, защищенные авторскими правами, а также файлы нелегального содержания!


    _________________
    [Профиль] [ЛС]
    Показать сообщения:    
    Ответить на тему

    Текущее время: Сегодня, в 08:26

    Часовой пояс: GMT + 2



    Вы не можете начинать темы
    Вы не можете отвечать на сообщения
    Вы не можете редактировать свои сообщения
    Вы не можете удалять свои сообщения
    Вы не можете голосовать в опросах
    Вы не можете прикреплять файлы к сообщениям
    Вы не можете скачивать файлы