BitTorrentTracker PerecTracker.org
BitTorrentTracker PerecTracker.org
    
Регистрация  ·  Вход
 
 · 
Забыли пароль?

  • (Classical/Concerto/Violin) W.A.Mozart - Violin Concertos No. 3 K. 216, No. 4 K. 218, No. 5 K. 219 - The English Concert, Andrew Manze - 2006, FLAC (image+.cue) lossless

    Ответить на тему
     
    Автор Сообщение

    Columb

    Создавать темы 26-Июл-2013 18:31

           

    [Цитировать]

    W.A.Mozart - Violin Concertos No. 3 K. 216, No. 4 K. 218, No. 5 K. 219 - The English Concert, Andrew Manze
    Жанр: Classical/Concerto/Violin
    Страна-производитель диска: Австрия
    Год издания диска: 2006
    Издатель (лейбл): Harmonia Mundi USA
    Номер по каталогу: HMU 807375
    Дата записи: 2005
    Аудиокодек: FLAC
    Тип рипа: image+.cue
    Битрейт аудио: lossless
    Продолжительность: 75:45
    Источник: собственный рип
    Наличие сканов в содержимом раздачи: да
    Треклист:
    Wolfgang Amadeus Mozart (1756-1791)
    3 Violin Concertos
    Concerto in G major, k. 216 24:04
    1 I Allegro 9:03
    2 II Adagio 8:21
    3 III Rondeau: Allegro - Andante - Allegretto - Tempo primo 6:40
    Concerto in D major, k. 218 22:35

    4 I Allegro 8:26
    5 II Andante cantabile 7:00
    6 III Rondeau: Andante grazioso - Allegro ma non troppo 7:09
    Concerto in A major, k. 219 28:50
    7 I Allegro aperto - Adagio - Allegro aperto 9:25
    8 II Adagio 10:23
    9 III Rondeau: Tempo di Menuetto - Allegro - Tempo di Menuetto 9:03
    All cadenzas by Andrew Manze
    Исполнители:
    The English Concert
    Andrew Manze solo violin & director

    Лог создания рипа

    Exact Audio Copy V1.0 beta 3 from 29. August 2011
    Отчёт EAC об извлечении, выполненном 25. июля 2013, 0:44
    The English Concert, Andrew Manze / Mozart - 3 Violin Concertos
    Дисковод: HL-DT-STDVDRAM GT33N Adapter: 1 ID: 0
    Режим чтения : Достоверность
    Использование точного потока : Да
    Отключение кэша аудио : Да
    Использование указателей C2 : Нет
    Коррекция смещения при чтении : 103
    Способность читать области Lead-in и Lead-out : Нет
    Заполнение пропущенных сэмплов тишиной : Да
    Удаление блоков с тишиной в начале и конце : Нет
    При вычислениях CRC использовались нулевые сэмплы : Да
    Интерфейс : Встроенный Win32-интерфейс для Win NT/2000
    Выходной формат : Пользовательский кодировщик
    Выбранный битрейт : 1024 kBit/s
    Качество : Высокий
    Добавление ID3-тега : Да
    Утилита сжатия : C:\Program Files (x86)\Exact Audio Copy\Flac\flac.exe
    Дополнительные параметры : -8 -V -T "TITLE=%title%" -T "ARTIST=%artist%" -T "ALBUMARTIST=%albumartist%" -T "ALBUM=%albumtitle%" -T "DATE=%year%" -T "TRACKTOTAL=%numtracks%" -T "GENRE=%genre%" -T "COMMENT=%comment%" -T "PERFORMER=%albuminterpret%" -T "COMPOSER=%composer%" %source% -o %dest%
    TOC извлечённого CD
    Трек | Старт | Длительность | Начальный сектор | Конечный сектор
    ---------------------------------------------------------------------
    1 | 0:00.00 | 9:03.07 | 0 | 40731
    2 | 9:03.07 | 8:20.73 | 40732 | 78304
    3 | 17:24.05 | 6:45.47 | 78305 | 108726
    4 | 24:09.52 | 8:25.68 | 108727 | 146669
    5 | 32:35.45 | 7:00.07 | 146670 | 178176
    6 | 39:35.52 | 7:16.50 | 178177 | 210926
    7 | 46:52.27 | 9:25.10 | 210927 | 253311
    8 | 56:17.37 | 10:22.58 | 253312 | 300019
    9 | 66:40.20 | 9:02.37 | 300020 | 340706
    Характеристики диапазона извлечения и сообщения об ошибках
    Выбранный диапазон
    Имя файла O:\!Rips\Mozart - 3 Violin Concertos.wav
    Пиковый уровень 97.1 %
    Скорость извлечения 2.3 X
    Качество диапазона 99.9 %
    CRC теста 90AB9B71
    CRC копии 90AB9B71
    Копирование... OK
    Ошибок не произошло
    AccurateRip: сводка
    Трек 1 : извлечено точно (доверие 8) [983B50C5] (AR v2)
    Трек 2 : извлечено точно (доверие 8) [51E35DE8] (AR v2)
    Трек 3 : извлечено точно (доверие 8) [335BF4D4] (AR v2)
    Трек 4 : извлечено точно (доверие 8) [8ABCAABB] (AR v2)
    Трек 5 : извлечено точно (доверие 8) [6ADD8294] (AR v2)
    Трек 6 : извлечено точно (доверие 8) [5DEE1CA3] (AR v2)
    Трек 7 : извлечено точно (доверие 8) [BD345FF5] (AR v2)
    Трек 8 : извлечено точно (доверие 8) [B1783273] (AR v2)
    Трек 9 : извлечено точно (доверие 8) [4AEBFB42] (AR v2)
    Все треки извлечены точно
    Конец отчёта
    ==== Контрольная сумма отчёта ABDF0C439A036DEA0D171F5EDAB2510A168BB8FB11D7EAC9538286DF4BEA820E ====

    Содержание индексной карты (.CUE)

    REM GENRE Classical
    REM DATE 2006
    REM DISCID 7A11BE09
    REM COMMENT "ExactAudioCopy v1.0b3"
    PERFORMER "The English Concert, Andrew Manze"
    TITLE "Mozart - 3 Violin Concertos"
    FILE "Mozart - 3 Violin Concertos.flac" WAVE
    TRACK 01 AUDIO
    TITLE "Violin Concerto No. 3 in G major, K. 216 'Strassburg': I. Allegro"
    PERFORMER "The English Concert, Andrew Manze"
    INDEX 01 00:00:00
    TRACK 02 AUDIO
    TITLE "Violin Concerto No. 3 in G major, K. 216 'Strassburg': II. Adagio"
    PERFORMER "The English Concert, Andrew Manze"
    INDEX 01 09:03:07
    TRACK 03 AUDIO
    TITLE "Violin Concerto No. 3 in G major, K. 216 'Strassburg': III. Rondeau: Allegro - Andante - Allegretto - Tempo primo"
    PERFORMER "The English Concert, Andrew Manze"
    INDEX 01 17:24:05
    TRACK 04 AUDIO
    TITLE "Violin Concerto No. 4 in D major, K. 218: I. Allegro"
    PERFORMER "The English Concert, Andrew Manze"
    INDEX 00 24:03:70
    INDEX 01 24:09:52
    TRACK 05 AUDIO
    TITLE "Violin Concerto No. 4 in D major, K. 218: II. Andante cantabile"
    PERFORMER "The English Concert, Andrew Manze"
    INDEX 01 32:35:45
    TRACK 06 AUDIO
    TITLE "Violin Concerto No. 4 in D major, K. 218: III. Rondeau: Andante grazioso - Allegro ma non troppo"
    PERFORMER "The English Concert, Andrew Manze"
    INDEX 01 39:35:52
    TRACK 07 AUDIO
    TITLE "Violin Concerto No. 5 in A major, K. 219 'Turkish': I. Allegro aperto - Adagio - Allegro aperto"
    PERFORMER "The English Concert, Andrew Manze"
    INDEX 00 46:44:25
    INDEX 01 46:52:27
    TRACK 08 AUDIO
    TITLE "Violin Concerto No. 5 in A major, K. 219 'Turkish': II. Adagio"
    PERFORMER "The English Concert, Andrew Manze"
    INDEX 01 56:17:37
    TRACK 09 AUDIO
    TITLE "Violin Concerto No. 5 in A major, K. 219 'Turkish': III. Rondeau: Tempo di Menuetto - Allegro - Tempo di Menuetto"
    PERFORMER "The English Concert, Andrew Manze"
    INDEX 01 66:40:20
    Скачать .torrent

    Скачать торрент-файл бесплатно и на максимальной скорости!

    Как скачивать? · Что такое торрент? · Рейтинг и ограничения

    !ВНИМАНИЕ!
    Сайт не распространяет и не хранит электронные версии произведений, а занимается лишь лишь предоставлением доступа к создаваемому пользователями каталогу ссылок на торрент-файлы, которые содержат только списки хеш-сумм, убедительная просьба с жалобами обращаться напрямую к пользователю. Файлы для обмена на трекере предоставлены пользователями сайта, и администрация не несёт ответственности за их содержание. Просьба не заливать файлы, защищенные авторскими правами, а также файлы нелегального содержания!

    [Профиль] [ЛС]
    Показать сообщения:    
    Ответить на тему

    Текущее время: Сегодня, в 11:35

    Часовой пояс: GMT + 2



    Вы не можете начинать темы
    Вы не можете отвечать на сообщения
    Вы не можете редактировать свои сообщения
    Вы не можете удалять свои сообщения
    Вы не можете голосовать в опросах
    Вы не можете прикреплять файлы к сообщениям
    Вы не можете скачивать файлы