BitTorrentTracker PerecTracker.org
BitTorrentTracker PerecTracker.org
    
Регистрация  ·  Вход
 
 · 
Забыли пароль?

  • Не говори ничего / Wish You Were Here (Киран Дарси-Смит / Kieran Darcy-Smith) [2012, Австралия, драма, детектив, HDRip] MVO

    Ответить на тему
     
    Автор Сообщение

    Light

    Создавать темы 25-Окт-2015 01:54

           

    [Цитировать]

    Не говори ничего / Wish You Were Here«Four Went. Three came back. Only one of them knows what happened»-Год выпуска: 2012
    Страна: Австралия
    Жанр: драма, детектив
    Продолжительность: 01:33:04
    Перевод: Профессиональный (многоголосый закадровый)
    Субтитры: нет-Возраст: 16+ (зрителям, достигшим 16 лет)
    Рейтинг MPAA: R (лицам до 17 лет обязательно присутствие взрослого)- -Режиссер: Киран Дарси-Смит / Kieran Darcy-Smith
    Роли озвучивали: Джоэл Эдгертон, Фелисити Прайс, Тереза Палмер, Энтони Старр, Николас Кассим, Отто Пейдж, Изабель Остин-Бойд, Тина Бурсилл, Уэйн Блэр, Валери Бейдер и др.
    Описание: Четыре друга отправляются на веселый азиатский праздник и только три возвращаются домой. Дэйв и Элис отправляются домой к пропавшему, чтобы объясниться с его родственниками. Когда сестра Элис Стеф также пропадает, всплывает неприглядная правда, но это только верхушка айсберга.-Сэмпл-Качество: HDRip
    Формат видео: AVI
    Видео: 720x304 (2,35:1), 23,976 fps, XviD, 1788 kbps, 0.341 bit/pixel
    Аудио 1: AC-3, 448 kb/s, 6 ch, 48 kHz, Rus, MVO
    Субтитры: Отсутствуют-

    MediaInfo

    Общее
    Формат                                   : AVI
    Формат/Информация                        : Audio Video Interleave
    Размер файла                             : 1,46 Гбайт
    Продолжительность                        : 1 ч. 33 м.
    Общий поток                              : 2245 Кбит/сек
    Программа кодирования                    : VirtualDubMod 1.5.10.2 (build 2540/release)
    Библиотека кодирования                   : VirtualDubMod build 2540/release
    Видео
    Идентификатор                            : 0
    Формат                                   : MPEG-4 Visual
    Профиль формата                          : Advanced Simple@L5
    Параметр BVOP формата                    : 2
    Параметр QPel формата                    : Нет
    Параметр GMC формата                     : Без точки перехода
    Параметр матрицы формата                 : Default (MPEG)
    Идентификатор кодека                     : XVID
    Идентификатор кодека/Подсказка           : XviD
    Продолжительность                        : 1 ч. 33 м.
    Битрейт                                  : 1788 Кбит/сек
    Ширина                                   : 720 пикселей
    Высота                                   : 304 пикселя
    Соотношение сторон                       : 2,35:1
    Частота кадров                           : 23,976 кадра/сек
    Цветовое пространство                    : YUV
    Субдискретизация насыщенности            : 4:2:0
    Битовая глубина                          : 8 бит
    Тип развёртки                            : Прогрессивная
    Метод сжатия                             : С потерями
    Бит/(Пиксели*Кадры)                      : 0.341
    Размер потока                            : 1,16 Гбайт (80%)
    Библиотека кодирования                   : XviD 1.2.1 (UTC 2008-12-04)
    Аудио
    Идентификатор                            : 1
    Формат                                   : AC-3
    Формат/Информация                        : Audio Coding 3
    Расширение режима                        : CM (complete main)
    Параметр Endianness формата              : Big
    Идентификатор кодека                     : 2000
    Продолжительность                        : 1 ч. 33 м.
    Вид битрейта                             : Постоянный
    Битрейт                                  : 448 Кбит/сек
    Каналы                                   : 6 каналов
    Расположение каналов                     : Front: L C R, Side: L R, LFE
    Частота                                  : 48,0 КГц
    Метод сжатия                             : С потерями
    Размер потока                            : 298 Мбайт (20%)
    Выравнивание                             : Разделение по промежуткам
    Продолжительность промежутка             : 42  мс. (1,00 видеокадр)
    Время предзагрузки промежутка            : 500  мс.

    Скриншоты

    Скачать .torrent

    Скачать торрент-файл бесплатно и на максимальной скорости!

    Как скачивать? · Что такое торрент? · Рейтинг и ограничения

    !ВНИМАНИЕ!
    Сайт не распространяет и не хранит электронные версии произведений, а занимается лишь лишь предоставлением доступа к создаваемому пользователями каталогу ссылок на торрент-файлы, которые содержат только списки хеш-сумм, убедительная просьба с жалобами обращаться напрямую к пользователю. Файлы для обмена на трекере предоставлены пользователями сайта, и администрация не несёт ответственности за их содержание. Просьба не заливать файлы, защищенные авторскими правами, а также файлы нелегального содержания!


    _________________
    [Профиль] [ЛС]
    Показать сообщения:    
    Ответить на тему

    Текущее время: Сегодня, в 16:27

    Часовой пояс: GMT + 2



    Вы не можете начинать темы
    Вы не можете отвечать на сообщения
    Вы не можете редактировать свои сообщения
    Вы не можете удалять свои сообщения
    Вы не можете голосовать в опросах
    Вы не можете прикреплять файлы к сообщениям
    Вы не можете скачивать файлы