BitTorrentTracker PerecTracker.org
BitTorrentTracker PerecTracker.org
    
Регистрация  ·  Вход
 
 · 
Забыли пароль?

  • Родня (Никита Михалков) [1981, мелодрама, HDTVRip-AVC] + Sub Rus, Eng

    Ответить на тему
     
    Автор Сообщение

    Light

    Создавать темы 25-Окт-2015 01:54

           

    [Цитировать]

    Родня-Жанр: мелодрама, трагикомедия
    Год выпуска: 1981
    Продолжительность: 01:32:25
    Субтитры: русские, английские-Режиссёр: Никита Михалков-В ролях:
    Нонна Мордюкова, Светлана Крючкова, Андрей Петров, Иван Бортник, Юрий Богатырев, Федя Стуков, Всеволод Ларионов, Никита Михалков, Александр Адабашьян, Павел Лебешев, Лариса Кузнецова, Олег Меньшиков, Сергей Газаров, Владимир Хотиненко, Руслан Ахметов, Юрий Бабинцев, Валентина Березуцкая, Виктор Бутурлин, Эрика Джимпел, Анна Гуляренко, Юрий Гусев, Геннадий Иванов, Светлана Коновалова, Римма Маркова
    Описание:
    Фильм повествует о сложных взаимоотношениях близких друг другу людей. Главная героиня пытается остановить распад семьи своей дочери. Действуя из самых добрых побуждений, она не в состоянии понять, почему ее вмешательство вызывает столь бурный протест.-Сэмпл | Кинопоиск-Качество видео: HDTVRip-AVC / Rodnja.1981.HDTV.1080i.ts | kinozal, спасибо daboen
    Формат видео: MKV
    Видео: x264 (High@L4.1); 900x648, Display aspect ratio 1.389:1, 25.000 fps, 3000 Kbps
    Аудио: AC-3; 16 bits 48 Khz; 2.0ch 192 Kbps; CBR
    Формат субтитров: softsub (SRT)

    Исходник

    * Битрейта в исходнике маловато, повсеместные дыры пришлось латать градфаном.** Начиная с отметки 00:26:00 в исходном видео примерно минутный дефект, напоминающий горизонтальное дрожание плёнки (особенно заметно на люстре).
    Можно было бы исправить, но к сожалению наличие логотипа превращает затею в бессмыленнную.
    Смотрим здесь: http://multi-up.com/1072664
    MediaInfo

    -

    x264 log

    avs [info]: 900x648p 1:1 @ 25/1 fps (cfr)
    x264 [info]: using SAR=1/1
    x264 [info]: using cpu capabilities: MMX2 SSE2Fast SSSE3 SSE4.2
    x264 [info]: profile High, level 4.1
    x264 [info]: frame I:652 Avg QP:17.37 size: 78321
    x264 [info]: frame P:31597 Avg QP:19.61 size: 28624
    x264 [info]: frame B:106378 Avg QP:21.19 size: 10567
    x264 [info]: consecutive B-frames: 1.4% 3.2% 8.2% 21.1% 29.8% 25.0% 8.1% 1.6% 0.9% 0.8%
    x264 [info]: mb I I16..4: 9.7% 70.4% 19.9%
    x264 [info]: mb P I16..4: 0.6% 12.6% 1.7% P16..4: 34.2% 38.1% 12.0% 0.0% 0.0% skip: 0.8%
    x264 [info]: mb B I16..4: 0.1% 1.3% 0.2% B16..8: 37.3% 19.3% 2.8% direct: 7.7% skip:31.4% L0:39.3% L1:47.1% BI:13.6%
    x264 [info]: 8x8 transform intra:82.9% inter:59.1%
    x264 [info]: direct mvs spatial:99.6% temporal:0.4%
    x264 [info]: coded y,uvDC,uvAC intra: 93.7% 80.1% 47.6% inter: 31.8% 18.4% 6.5%
    x264 [info]: i16 v,h,dc,p: 9% 11% 12% 68%
    x264 [info]: i8 v,h,dc,ddl,ddr,vr,hd,vl,hu: 13% 10% 7% 9% 12% 13% 12% 12% 13%
    x264 [info]: i4 v,h,dc,ddl,ddr,vr,hd,vl,hu: 13% 22% 3% 7% 12% 12% 11% 9% 11%
    x264 [info]: i8c dc,h,v,p: 35% 26% 22% 17%
    x264 [info]: Weighted P-Frames: Y:3.4% UV:0.3%
    x264 [info]: ref P L0: 42.2% 11.0% 17.9% 5.5% 5.4% 3.4% 3.6% 1.8% 2.0% 1.4% 1.6% 1.2% 1.4% 1.2% 0.2% 0.0%
    x264 [info]: ref B L0: 84.4% 8.1% 2.4% 1.3% 0.9% 0.8% 0.6% 0.4% 0.3% 0.3% 0.3% 0.2% 0.1%
    x264 [info]: ref B L1: 95.8% 4.2%
    x264 [info]: kb/s:3000.29
    x264 [total]: encoded 138627 frames, 7.58 fps, 3000.30 kb/s
    -General
    Unique ID : 205811985663352285483414281040160657203 (0x9AD5F2550D36B180AF9613EF5DC08F33)
    Complete name : Родня.1981.mkv
    Format : Matroska
    Format version : Version 2
    File size : 2.06 GiB
    Duration : 1h 32mn
    Overall bit rate : 3 194 Kbps
    Movie name : «Родня»
    Encoded date : UTC 2015-10-24 11:53:24
    Writing application : mkvmerge v5.8.0 ('No Sleep / Pillow') built on Sep 2 2012 15:37:04
    Writing library : libebml v1.2.3 + libmatroska v1.3.0
    Comment : HDTVRip-AVC
    Originally released : October 23rd 2015
    Encoded by : george$t®
    Video
    ID : 1
    Format : AVC
    Format/Info : Advanced Video Codec
    Format profile : High@L4.1
    Format settings, CABAC : Yes
    Format settings, ReFrames : 14 frames
    Codec ID : V_MPEG4/ISO/AVC
    Duration : 1h 32mn
    Bit rate : 3 000 Kbps
    Width : 900 pixels
    Height : 648 pixels
    Display aspect ratio : 1.389
    Frame rate mode : Constant
    Frame rate : 25.000 fps
    Color space : YUV
    Chroma subsampling : 4:2:0
    Bit depth : 8 bits
    Scan type : Progressive
    Bits/(Pixel*Frame) : 0.206
    Stream size : 1.90 GiB (92%)
    Title : Родня.1981
    Writing library : x264 core 148 r2579kMod 73ae2d1
    Encoding settings : cabac=1 / ref=14 / deblock=1:-1:-1 / analyse=0x3:0x113 / me=umh / subme=11 / psy=1 / fade_compensate=0.00 / psy_rd=0.90:0.15 / mixed_ref=1 / me_range=32 / chroma_me=1 / trellis=2 / 8x8dct=1 / cqm=0 / deadzone=21,11 / fast_pskip=0 / chroma_qp_offset=-3 / threads=12 / lookahead_threads=2 / sliced_threads=0 / nr=0 / decimate=0 / interlaced=0 / bluray_compat=0 / constrained_intra=0 / fgo=0 / bframes=9 / b_pyramid=2 / b_adapt=2 / b_bias=0 / direct=3 / weightb=1 / open_gop=0 / weightp=2 / keyint=250 / keyint_min=25 / scenecut=40 / intra_refresh=0 / rc_lookahead=40 / rc=2pass / mbtree=0 / bitrate=3000 / ratetol=1.0 / qcomp=0.60 / qpmin=0 / qpmax=69 / qpstep=4 / cplxblur=20.0 / qblur=0.5 / vbv_maxrate=50000 / vbv_bufsize=62500 / nal_hrd=none / filler=0 / ip_ratio=1.27 / pb_ratio=1.30 / aq=2:0.90
    Language : Russian
    Default : Yes
    Forced : No
    Color primaries : BT.709
    Transfer characteristics : BT.709
    Matrix coefficients : BT.709
    Color range : Limited
    Audio
    ID : 2
    Format : AC-3
    Format/Info : Audio Coding 3
    Mode extension : CM (complete main)
    Format settings, Endianness : Big
    Codec ID : A_AC3
    Duration : 1h 32mn
    Bit rate mode : Constant
    Bit rate : 192 Kbps
    Channel(s) : 2 channels
    Channel positions : Front: L R
    Sampling rate : 48.0 KHz
    Bit depth : 16 bits
    Compression mode : Lossy
    Stream size : 127 MiB (6%)
    Title : AC-3; 16 bits 48 Khz; 2.0ch 192 Kbps; CBR
    Language : Russian
    Default : Yes
    Forced : No
    Text #1
    ID : 3
    Format : UTF-8
    Codec ID : S_TEXT/UTF8
    Codec ID/Info : UTF-8 Plain Text
    Title : Субтитры русские
    Language : Russian
    Default : No
    Forced : No
    Text #2
    ID : 4
    Format : UTF-8
    Codec ID : S_TEXT/UTF8
    Codec ID/Info : UTF-8 Plain Text
    Title : Субтитры английские
    Language : English
    Default : No
    Forced : No
    Menu
    00:00:00.000 : ru:Спальный вагон
    00:10:46.680 : ru:Мать и дочь
    00:17:07.960 : ru:Внучка
    00:25:50.960 : ru:Зять
    00:29:10.760 : ru:Гражданин с усами
    00:33:59.240 : ru:Ссора
    00:43:29.960 : ru:Ночлег
    00:49:14.200 : ru:Бывший муж
    01:04:39.160 : ru:В ресторане
    01:18:15.360 : ru:Ожидание
    01:23:42.080 : ru:Проводы в армию
    01:28:44.360 : ru:Финал. Титры
    Скачать .torrent

    Скачать торрент-файл бесплатно и на максимальной скорости!

    Как скачивать? · Что такое торрент? · Рейтинг и ограничения

    !ВНИМАНИЕ!
    Сайт не распространяет и не хранит электронные версии произведений, а занимается лишь лишь предоставлением доступа к создаваемому пользователями каталогу ссылок на торрент-файлы, которые содержат только списки хеш-сумм, убедительная просьба с жалобами обращаться напрямую к пользователю. Файлы для обмена на трекере предоставлены пользователями сайта, и администрация не несёт ответственности за их содержание. Просьба не заливать файлы, защищенные авторскими правами, а также файлы нелегального содержания!


    _________________
    [Профиль] [ЛС]
    Показать сообщения:    
    Ответить на тему

    Текущее время: Сегодня, в 10:13

    Часовой пояс: GMT + 2



    Вы не можете начинать темы
    Вы не можете отвечать на сообщения
    Вы не можете редактировать свои сообщения
    Вы не можете удалять свои сообщения
    Вы не можете голосовать в опросах
    Вы не можете прикреплять файлы к сообщениям
    Вы не можете скачивать файлы