Register  ·  Log in
Forgot password?

  • Школа Монстров: Бу-Йорк, Бу-Йорк / Monster High: Boo York, Boo York (Уильям Лау / William Lau) [2015, мультфильм, семейный, DVB] Dub

    Reply to topic
    Author Message


    Post 25-Oct-2015 02:54



    Школа Монстров: Бу-Йорк, Бу-Йорк / Monster High: Boo York, Boo York
    Год выпуска: 2015
    Страна: США
    Жанр: мультфильм, семейный
    Продолжительность: 01:08:35
    Перевод: Профессиональный (дублированный)
    Русские субтитры: нет
    Режиссёр: Уильям Лау / William Lau
    Описание: Приключения учениц школы Монстр Хай в городе моды и музыки Бу-Йорке.
    Девочки отправляются покорять Бу-Йорк и выступать на Бладвее со своим мюзиклом. Тем временем в городе готовится грандиозная вечеринка в честь редкой кометы, которая совсем скоро прилетит на Землю. Эта комета обладает некой волшебной силой, и весь город гудит в ожидании долгожданного события.
    Вместе с кометой с небес прилетит мечтательная девушка-инопланетянка. Она идеально дополнит музыкальную группу монстрических певиц, и вечеринка получится поистине незабываемой. Зажигай, Бу-Йорк!
    Доп. информация:

    Релиз группы:
    Трансляция спутникового канала:

    Качество видео: DVB
    Формат видео: MPEG-PS
    Видео: MPEG2 Video, 720x576 (4:3), 25 fps, 3100 kbps
    Аудио: MPEG Audiо, 2 сh, 48 kHz, 192 kbps


    Complete name : D:\Monster High Boo York, Boo York. (2015)_DVB by SLuMeP.mpg
    Format : MPEG-PS
    File size : 1.59 GiB
    Duration : 1h 8mn
    Overall bit rate mode : Variable
    Overall bit rate : 3 310 Kbps
    ID : 224 (0xE0)
    Format : MPEG Video
    Format version : Version 2
    Format profile : Main@Main
    Format settings, BVOP : No
    Format settings, Matrix : Custom
    Format settings, GOP : Variable
    Duration : 1h 8mn
    Bit rate mode : Variable
    Bit rate : 3 052 Kbps
    Maximum bit rate : 5 000 Kbps
    Width : 720 pixels
    Height : 576 pixels
    Display aspect ratio : 4:3
    Frame rate : 25.000 fps
    Standard : PAL
    Color space : YUV
    Chroma subsampling : 4:2:0
    Bit depth : 8 bits
    Scan type : Interlaced
    Scan order : Top Field First
    Compression mode : Lossy
    Bits/(Pixel*Frame) : 0.294
    Time code of first frame : 00:00:00:00
    Time code source : Group of pictures header
    Stream size : 1.46 GiB (92%)
    ID : 192 (0xC0)
    Format : MPEG Audio
    Format version : Version 1
    Format profile : Layer 2
    Duration : 1h 8mn
    Bit rate mode : Constant
    Bit rate : 192 Kbps
    Channel(s) : 2 channels
    Sampling rate : 48.0 KHz
    Compression mode : Lossy
    Stream size : 94.2 MiB (6%)


    Download .torrent

    Download free and at maximum speed!

    How to Download? · What is a torrent? · Ratings and Limitations

    The site does not extend and does not store electronic(digital) versions of products, and only gives access to a reference catalogue created by users on torrent-files which contain only lists of the hash-sums, the earnest entreaty, with complaints(abuse) to access directly to the user. Files for an exchange on tracker are given by users of a site, and the administration does not bear the responsibility for their maintenance. The request to not fill in the files protected by copyrights, and also files of the illegal maintenance!

    [Profile] [PM]
    Display posts from previous:    
    Reply to topic

    The time now is: Today 19:14

    All times are GMT + 3 Hours

    You cannot post new topics in this forum
    You cannot reply to topics in this forum
    You cannot edit your posts in this forum
    You cannot delete your posts in this forum
    You cannot vote in polls in this forum
    You cannot attach files in this forum
    You cannot download files in this forum