BitTorrentTracker PerecTracker.org
BitTorrentTracker PerecTracker.org
    
Регистрация  ·  Вход
 
 · 
Забыли пароль?

  • Конец прекрасной эпохи (Станислав Говорухин) [2014, Россия, Драма, комедия, WEB-DLRip, SD (480p)] Original

    Ответить на тему
     
    Автор Сообщение

    rechyn

    Создавать темы 24-Окт-2015 17:30

           

    [Цитировать]

    Конец прекрасной эпохи
    -
    7.075 / 10 6.30 / 10
    -Год выпуска: 2014
    Страна: Россия
    Жанр: Драма, комедия
    Продолжительность: 01:34:01
    Перевод: Не требуется
    Оригинальная аудиодорожка: Есть
    Режиссёр: Станислав Говорухин
    Сценарий: Сергей Довлатов
    Продюсер: Екатерина Маскина, Александр Просянов
    Оператор: Геннадий Карюк
    Композитор: Артем Васильев
    Художник: Валентин Гидулянов, Наталья Монева
    В ролях: Иван Колесников, Сергей Гармаш, Федор Добронравов, Дмитрий Астрахан, Юлиан Макаров, Лембит Ульфсак, Александра Нижегородова, Юлия Тройникова, Тыну Карк, Сергей Епишев
    Сборы в России: $201 471
    Премьера (РФ): 1 октября 2015
    Описание: Молодому журналисту и писателю Андрею Лентулову, известному прямотой своих взглядов, свободой мысли и дерзостью суждений, предлагают переехать из Питера в Таллин, чтобы работать в местной газете. Там Андрей с головой уходит в полный противоречий роман с редактором Мариной, бесконечные случайные связи, но, что самое главное — яростное сопротивление системе. Какой была борьба бунтаря, любимца женщин и «самого аморального сотрудника» против жесточайшей цензуры, слежки и ханжества, и кто в ней победил?-Качество исходника: WEB-DL 1080p
    Качество: WEB-DLRip
    Тип: SD (480p)
    Контейнер: M4V
    Видео: H.264, 852х460 анаморф 640x460, 1.85:1, 1 300 Kbps, 23.976 fps
    Аудио: Русский/Оригинальная дорожка , AAC / 2.0 / 157 Kbps / 48.0 KHz
    -

    iTunes Meta Tags

    Sort Name: Конец прекрасной эпохи
    XID: Apple:vendor_id:2014-838533
    contentID: 1039027565
    Copyright: © 2015 Люксор
    Screenwriters: Сергей Довлатов
    Producers: Екатерина Маскина, Александр Просянов
    Director: Станислав Говорухин
    Cast: Иван Колесников, Сергей Гармаш, Федор Добронравов, Дмитрий Астрахан, Юлиан Макаров, Лембит Ульфсак, Александра Нижегородова, Юлия Тройникова, Тыну Карк, Сергей Епишев
    Studio: Мосфильм, Вертикаль
    Rating: 135
    Long Description: Молодому журналисту и писателю Андрею Лентулову, известному прямотой своих взглядов, свободой мысли и дерзостью суждений, предлагают переехать из Питера в Таллин, чтобы работать в местной газете. Там Андрей с головой уходит в полный противоречий роман с редактором Мариной, бесконечные случайные связи, но, что самое главное - яростное сопротивление системе. Какой была борьба бунтаря, любимца женщин и "самого аморального сотрудника" против жесточайшей цензуры, слежки и ханжества, и кто в ней победил?
    Description: Молодому журналисту и писателю Андрею Лентулову, известному прямотой своих взглядов, свободой мысли и дерзостью суждений, предлагают переехать из Питера в Таллин, чтобы работать в местной газете. Там Андрей с головой уходит в полный противоречий роман с редактором Мариной, бесконечные случайные связи, но, что самое главное - яростное сопротивление системе. Какой была борьба бунтаря, любимца женщин и "самого аморального сотрудника" против жесточайшей цензуры, слежки и ханжества, и кто в ней победил?
    Release Date: 2014-01-01T08:00:00Z
    Genre: Русское кино
    Artist: Станислав Говорухин
    Name: Конец прекрасной эпохи

    MediaInfo

    General
    Complete name : /Users/imac/HandBrake/Konec.prekrasnoy.epoxi.(480p).(pk).m4v
    Format : MPEG-4
    Codec ID : M4V
    File size : 979 MiB
    Duration : 1h 34mn
    Overall bit rate mode : Variable
    Overall bit rate : 1 455 Kbps
    Movie name : Конец прекрасной эпохи
    Performer : Станислав Говорухин
    Director : Станислав Говорухин
    Actor : Иван Колесников / Сергей Гармаш / Федор Добронравов / Дмитрий Астрахан / Юлиан Макаров / Лембит Ульфсак / Александра Нижегородова / Юлия Тройникова / Тыну Карк / Сергей Епишев
    Screenplay by : Сергей Довлатов
    Producer : Екатерина Маскина / Александр Просянов
    Production studio : Мосфильм, Вертикаль
    Genre : Русское кино
    ContentType : Short Film
    Description : Молодому журналисту и писателю Андрею Лентулову, известному прямотой своих взглядов, свободой мысли и дерзостью суждений, предлагают переехать из Питера в Таллин, чтобы работать в местной газете. Там Андрей с головой уходит в полный противоречий роман с редактором Мариной, бесконечные случайные связи, но, что самое главное - яростное сопротивление системе. Какой была борьба бунтаря, любимца женщин и "самого аморального сотрудника" против жесточайшей цензуры, слежки и ханжества, и кто в ней победил?
    Recorded date : UTC 2014-01-01 08:00:00
    Encoded date : UTC 2015-10-24 10:11:55
    Tagged date : UTC 2015-10-24 10:12:17
    Copyright : © 2015 Люксор
    Cover : Yes
    Rating : None
    Title/Sort : Конец прекрасной эпохи
    LongDescription : Молодому журналисту и писателю Андрею Лентулову, известному прямотой своих взглядов, свободой мысли и дерзостью суждений, предлагают переехать из Питера в Таллин, чтобы работать в местной газете. Там Андрей с головой уходит в полный противоречий роман с редактором Мариной, бесконечные случайные связи, но, что самое главное - яростное сопротивление системе. Какой была борьба бунтаря, любимца женщин и "самого аморального сотрудника" против жесточайшей цензуры, слежки и ханжества, и кто в ней победил?
    AppleStoreCatalogID : 1039027565
    Vendor : Apple:vendor_id:2014-838533
    ContentRating : ru-movie|16+|375|
    Video
    ID : 1
    Format : AVC
    Format/Info : Advanced Video Codec
    Format profile : Baseline@L3
    Format settings, CABAC : No
    Format settings, ReFrames : 2 frames
    Codec ID : avc1
    Codec ID/Info : Advanced Video Coding
    Duration : 1h 34mn
    Bit rate : 1 300 Kbps
    Width : 640 pixels
    Height : 460 pixels
    Display aspect ratio : 1.85:1
    Frame rate mode : Variable
    Frame rate : 23.976 fps
    Minimum frame rate : 23.974 fps
    Maximum frame rate : 23.981 fps
    Color space : YUV
    Chroma subsampling : 4:2:0
    Bit depth : 8 bits
    Scan type : Progressive
    Bits/(Pixel*Frame) : 0.184
    Stream size : 870 MiB (89%)
    Title : Main Program
    Writing library : x264 core 142 r2479 dd79a61
    Encoding settings : cabac=0 / ref=2 / deblock=1:0:0 / analyse=0x1:0x111 / me=umh / subme=6 / psy=1 / psy_rd=1.00:0.00 / mixed_ref=1 / me_range=16 / chroma_me=1 / trellis=0 / 8x8dct=0 / cqm=0 / deadzone=21,11 / fast_pskip=1 / chroma_qp_offset=-2 / threads=36 / lookahead_threads=3 / sliced_threads=0 / nr=0 / decimate=1 / interlaced=0 / bluray_compat=0 / constrained_intra=0 / bframes=0 / weightp=0 / keyint=240 / keyint_min=24 / scenecut=40 / intra_refresh=0 / rc_lookahead=40 / rc=2pass / mbtree=1 / bitrate=1300 / ratetol=1.0 / qcomp=0.60 / qpmin=0 / qpmax=69 / qpstep=4 / cplxblur=20.0 / qblur=0.5 / vbv_maxrate=5000 / vbv_bufsize=5000 / nal_hrd=none / filler=0 / ip_ratio=1.40 / aq=1:1.00
    Language : Russian
    Encoded date : UTC 2015-10-24 10:11:55
    Tagged date : UTC 2015-10-24 10:11:58
    Color range : Limited
    Color primaries : BT.709
    Transfer characteristics : BT.709
    Matrix coefficients : BT.709
    Audio
    ID : 2
    Format : AAC
    Format/Info : Advanced Audio Codec
    Format profile : LC
    Codec ID : 40
    Duration : 1h 34mn
    Bit rate mode : Variable
    Bit rate : 157 Kbps
    Maximum bit rate : 247 Kbps
    Channel(s) : 2 channels
    Channel positions : Front: L R
    Sampling rate : 48.0 KHz
    Compression mode : Lossy
    Stream size : 105 MiB (11%)
    Title : Russian Stereo
    Language : Russian
    Encoded date : UTC 2015-10-24 10:11:55
    Tagged date : UTC 2015-10-24 10:12:10

    x264 лог

    x264 [info]: frame I:934   Avg QP:16.75  size: 44064
    x264 [info]: frame P:134327 Avg QP:19.69  size:  6489
    x264 [info]: mb I  I16..4: 15.3%  0.0% 84.7%
    x264 [info]: mb P  I16..4:  0.4%  0.0%  1.4%  P16..4: 33.3% 14.6%  6.7%  0.0%  0.0%    skip:43.6%
    x264 [info]: coded y,uvDC,uvAC intra: 78.0% 29.4% 7.2% inter: 21.8% 2.2% 0.0%
    x264 [info]: i16 v,h,dc,p: 43% 11%  9% 37%
    x264 [info]: i4 v,h,dc,ddl,ddr,vr,hd,vl,hu: 30% 13% 13%  6%  8% 10%  7%  8%  6%
    x264 [info]: i8c dc,h,v,p: 68% 11% 19%  2%
    x264 [info]: ref P L0: 79.8% 20.2%
    x264 [info]: kb/s:1294.43

    Скриншоты

    -

    Релиз подготовлен для просмотра на Apple TV, iPad, iPhone, iPod Touch.
    Для просмотра данного релиза на компьютере с ОС Windows рекомендуется использовать VLC media player
    Скачать .torrent

    Скачать торрент-файл бесплатно и на максимальной скорости!

    Как скачивать? · Что такое торрент? · Рейтинг и ограничения

    !ВНИМАНИЕ!
    Сайт не распространяет и не хранит электронные версии произведений, а занимается лишь лишь предоставлением доступа к создаваемому пользователями каталогу ссылок на торрент-файлы, которые содержат только списки хеш-сумм, убедительная просьба с жалобами обращаться напрямую к пользователю. Файлы для обмена на трекере предоставлены пользователями сайта, и администрация не несёт ответственности за их содержание. Просьба не заливать файлы, защищенные авторскими правами, а также файлы нелегального содержания!


    _________________
    [Профиль] [ЛС]
    Показать сообщения:    
    Ответить на тему

    Текущее время: Сегодня, в 08:03

    Часовой пояс: GMT + 2



    Вы не можете начинать темы
    Вы не можете отвечать на сообщения
    Вы не можете редактировать свои сообщения
    Вы не можете удалять свои сообщения
    Вы не можете голосовать в опросах
    Вы не можете прикреплять файлы к сообщениям
    Вы не можете скачивать файлы