BitTorrentTracker PerecTracker.org
BitTorrentTracker PerecTracker.org
    
Регистрация  ·  Вход
 
 · 
Забыли пароль?

  • Вне/себя / Self/less (Тарсем Сингх / Tarsem Singh) [2015, США, Фантастика, триллер, боевик, HDRip] Dub

    Ответить на тему
     
    Автор Сообщение

    rechyn

    Создавать темы 24-Окт-2015 17:30

           

    [Цитировать]

    Вне/себя / Self/less
    Страна: США
    Жанр: Фантастика, триллер, боевик
    Слоган: «У бессмертия есть побочные эффекты»
    Год выпуска: 2015
    Продолжительность: 01:52:12
    Перевод: Профессиональный (дублированный)
    Cубтитры: нет-Режиссер: Тарсем Сингх / Tarsem Singh-В ролях: Райан Рейнольдс, Бен Кингсли, Натали Мартинес, Мэттью Гуд, Виктор Гарбер, Дерек Люк, Джейни-Линн Кинчен, Мелора Хардин, Мишель Докери, Сэмюэл Пейдж-Описание: В будущем становится возможным победить смерть с помощью имплантации своего сознания в молодое тело, созданное методом генной инженерии. Операция эта дорогостоящая и проводится подпольно, а поэтому доступна лишь ограниченному кругу лиц. Умирающий пожилой бизнесмен решается на это и получает возможность прожить еще одну жизнь. Однако когда ему приоткрывается тайна происхождения нового тела, за ним начинает охоту секретная организация, которая не остановится ни перед чем, чтобы
    Сэмпл: http://multi-up.com/1072605
    Качество видео: HDRip
    Формат видео: AVI
    Видео: XviD, 704x400, 25 fps, 1407 kbps
    Аудио: AC3, 48 kHz, 448.00 kbps, 6 ch

    MediaInfo

    General
    Complete name : SELFLESS_HDRip.avi
    Format : AVI
    Format/Info : Audio Video Interleave
    File size : 1.46 GiB
    Duration : 1h 52mn
    Overall bit rate : 1 865 Kbps
    Writing application : VirtualDubModRus 1.5.10.2 (build 2542/release)
    Writing library : VirtualDubMod build 2542/release
    Video #0
    ID : 0
    Format : MPEG-4 Visual
    Format profile : Advanced Simple@L5
    Format settings, BVOP : 1
    Format settings, QPel : No
    Format settings, GMC : No warppoints
    Format settings, Matrix : Default (MPEG)
    Codec ID : XVID
    Codec ID/Hint : XviD
    Duration : 1h 52mn
    Bit rate : 1 407 Kbps
    Width : 704 pixels
    Height : 400 pixels
    Display aspect ratio : 16:9
    Frame rate : 25.000 fps
    Color space : YUV
    Chroma subsampling : 4:2:0
    Bit depth : 8 bits
    Scan type : Progressive
    Compression mode : Lossy
    Bits/(Pixel*Frame) : 0.200
    Stream size : 1.10 GiB (75%)
    Writing library : XviD 1.2.1 (UTC 2008-12-04)
    Audio #1
    ID : 1
    Format : AC-3
    Format/Info : Audio Coding 3
    Mode extension : CM (complete main)
    Format settings, Endianness : Big
    Codec ID : 2000
    Duration : 1h 52mn
    Bit rate mode : Constant
    Bit rate : 448 Kbps
    Channel(s) : 6 channels
    Channel positions : Front: L C R, Side: L R, LFE
    Sampling rate : 48.0 KHz
    Bit depth : 16 bits
    Compression mode : Lossy
    Stream size : 360 MiB (24%)
    Alignment : Split accross interleaves
    Interleave, duration : 40 ms (1.00 video frame)
    Interleave, preload duration : 500 ms

    Скриншот c названием фильма

    Скриншоты

    Скачать .torrent

    Скачать торрент-файл бесплатно и на максимальной скорости!

    Как скачивать? · Что такое торрент? · Рейтинг и ограничения

    !ВНИМАНИЕ!
    Сайт не распространяет и не хранит электронные версии произведений, а занимается лишь лишь предоставлением доступа к создаваемому пользователями каталогу ссылок на торрент-файлы, которые содержат только списки хеш-сумм, убедительная просьба с жалобами обращаться напрямую к пользователю. Файлы для обмена на трекере предоставлены пользователями сайта, и администрация не несёт ответственности за их содержание. Просьба не заливать файлы, защищенные авторскими правами, а также файлы нелегального содержания!


    _________________
    [Профиль] [ЛС]
    Показать сообщения:    
    Ответить на тему

    Текущее время: Сегодня, в 18:12

    Часовой пояс: GMT + 2



    Вы не можете начинать темы
    Вы не можете отвечать на сообщения
    Вы не можете редактировать свои сообщения
    Вы не можете удалять свои сообщения
    Вы не можете голосовать в опросах
    Вы не можете прикреплять файлы к сообщениям
    Вы не можете скачивать файлы