BitTorrentTracker PerecTracker.org
BitTorrentTracker PerecTracker.org
    
Регистрация  ·  Вход
 
 · 
Забыли пароль?

  • Мабуть Боги з'їхали з глузду. Дилогія / The Gods Must Be Crazy. Dilogy (Джеймі Юйс) [1980, 1989 р., бойовик, комедія, DVDRip] MVO (Новий канал) Ukr + Original + Sub Eng

    Ответить на тему
     
    Автор Сообщение

    older

    Создавать темы 24-Окт-2015 08:41

           

    [Цитировать]

    Мабуть Боги з'їхали з глузду. Дилогія / The Gods Must Be Crazy. Dilogy

    Рік випуску: 1980, 1989
    Країна: Ботсвана, ПАР
    Кіностудія / кінокомпанія: A C.A.T. Films, 20th Century Fox / Columbia Pictures
    Жанр: бойовик, комедія
    Тривалість: 01:48:50 + 01:37:30
    Субтитри: англійські
    Переклад: багатоголосий, закадровий (професійний) - Новий канал
    Аудіодоріжка: українська, англійська-Режисер: Джеймі Юйс
    Продюсер: Джеймі Юйс, Бот Троски
    Сценарій: Джеймі Юйс-Світова прем'єра: 10 вересня 1980
    Обмеження за віком: нема- -Актори: Н!ксау / N!xau, Сандра Прінсло / Sandra Prinsloo, Меріус Вейерс / Marius Weyers / Лена Фаруджіа / Lena Farugia, Ханс Стрідом / Hans Strydom-Сюжет: Сюжет фільму відбувається у 1980 році в Ботсвані (дату названо по ходу сюжету). У незайманій цивілізацією савані проживає дике плем'я бушменів. Все починається з того, що головний герой фільму бушмен Хі знайшов у пустелі небачений предмет - пляшку з під кока-коли. Пляшка, якою хотіли володіти всі, внесла смуту в спокійне первісне життя племені і Хі вирішив віднести небезпечний «дар богів» від гріха подалі за край світу.
    Бушмен вирушає в далеку подорож, в якій стикається з сучасною цивілізацією. Йому трапляються по дорозі хороші і погані люди. Вчений-біолог Ендрю Стейн і його друг африканець Мпуді рятують Хі від загибелі, коли той потрапив у в'язницю. Паралельним сюжетом показана спроба державного перевороту в країні, де при владі стоять військові, з якими борються повстанці.
    Пройшовши через усі труднощі та негаразди, Хі добирається до мети, викидає пляшку за край світу і повертається назад до свого племені та сім'ї.
    У другій частині: Пустеля Калахарі - дике і пустинне місце. Але тільки не цього разу. Два лікаря: зоології та юриспруденції, зазнають невелику авіакатастрофу. Бушмен Хіко втрачає своїх дітей, які випадково потрапили у вантажівку до браконьєрів, й цілодобово біжить за вантажівкою по сліду. Один з браконьєрів настільки неуважний, що їх вантажівка часом годинами їде не в тому напрямку, так що потім доводиться розвертатися і шукати нову дорогу. А також два солдати: кубинець і анголець, які ніяк не можуть визначити, хто з них взяв іншого в полон. І двоє маленьких бушменів - Хірі та Хіса, які вперше побачили масу незвичайних речей: вантажівку, рушниці і воду, яку не потрібно збирати у вигляді роси.
    Цілком достатня кількість людей, щоб вельми урізноманітнити життя маси мешканців «пустинної» пустелі: скорпіонів, гієн, жирафів, левів, слонів, мавп, носорогів, страусів і багатьох інших корінних мешканців цього екзотичного місця. Рідкісний випадок, коли друга частина фільма не гірша першої.-Формат: AVI
    Якість: DVDRip
    Відео кодек: XviD
    Відео: 720x320 (2,25:1) / 720 х 384 (1,85:1), 1772-1793 kbps, 23.976 fps, 0.267-0.325 bit/pixel
    Аудіо 1: AC3, 48 kHz, 2 ch, 192 kbps - Новий канал
    Аудіо 2: AC3, 48 kHz, 2 ch, 192 kbps - Original
    Субтитри: англійська, тип: програмні (м'які), формат: SRT-Джерело:

    Реліз

    Щира подяка, за наданий сирий звук пану: dbdeveloper!
    За зведення звуку та постери пану: Lan

    Скріншоти


    MediaInfo: 1 частина

    Общее
    Полное имя                               : \The Gods Must Be Crazy. Dilogy (1980,1989) DVDRip\The Gods Must Be Crazy (1980) DVDRip [Ukr AC3_2.0,Eng].avi
    Формат                                   : AVI
    Формат/Информация                        : Audio Video Interleave
    Размер файла                             : 1,67 Гбайт
    Продолжительность                        : 1 ч. 48 м.
    Общий поток                              : 2192 Кбит/сек
    Название фильма                          : Мабуть Боги з'їхали з глузду / The Gods Must Be Crazy (1980)
    Название фильма/Страна                   : South Africa, Botswana
    Исполнитель                              : N!xau, Sandra Prinsloo, Marius Weyers, Louw Verwey, Michael Thys
    Режиссёр                                 : Jamie Uys
    Оператор                                 : Buster Reynolds
    Запись произвёл                          : Jamie Uys
    Изменено                                 : Stanford C. Allen, Jamie Uys
    Продюсер                                 : Jamie Uys
    Композитор                               : John Boshoff
    Распространитель                         : Ster Kinekor, Jensen Farley Pictures, 20th Century Fox
    Студия-производитель                     : A C.A.T. Films
    Жанр                                     : Comedy
    Ограничения прав                         : не проходило оцінку
    Дата записи                              : 1980
    Программа кодирования                    : VirtualDubModUkr 1.5.10.2 (build 2542/release) VirtualDubMod build 2542/release
    Формат оригинала/Имя                     : Movie
    Правообладатель                          : A C.A.T. Films, 20th Century Fox
    Видео
    Идентификатор                            : 0
    Формат                                   : MPEG-4 Visual
    Параметр BVOP формата                    : 1
    Параметр QPel формата                    : Нет
    Параметр GMC формата                     : Без точки перехода
    Параметр матрицы формата                 : Default (H.263)
    Режим смешивания                         : Сжатый битовый поток
    Идентификатор кодека                     : DX50
    Идентификатор кодека/Подсказка           : DivX 5
    Продолжительность                        : 1 ч. 48 м.
    Битрейт                                  : 1793 Кбит/сек
    Ширина                                   : 720 пикселей
    Высота                                   : 320 пикселей
    Соотношение сторон                       : 2,25:1
    Частота кадров                           : 23,976 кадра/сек
    Цветовое пространство                    : YUV
    Субдискретизация насыщенности            : 4:2:0
    Битовая глубина                          : 8 бит
    Тип развёртки                            : Прогрессивная
    Метод сжатия                             : С потерями
    Бит/(Пиксели*Кадры)                      : 0.325
    Размер потока                            : 1,36 Гбайт (82%)
    Библиотека кодирования                   : DivX 6.8.0 (UTC 2007-12-04)
    Аудио #1
    Идентификатор                            : 1
    Формат                                   : AC-3
    Формат/Информация                        : Audio Coding 3
    Расширение режима                        : CM (complete main)
    Параметр Endianness формата              : Big
    Идентификатор кодека                     : 2000
    Продолжительность                        : 1 ч. 48 м.
    Вид битрейта                             : Постоянный
    Битрейт                                  : 192 Кбит/сек
    Каналы                                   : 2 канала
    Расположение каналов                     : Front: L R
    Частота                                  : 48,0 КГц
    Битовая глубина                          : 16 бит
    Метод сжатия                             : С потерями
    Размер потока                            : 149 Мбайт (9%)
    Выравнивание                             : Разделение по промежуткам
    Продолжительность промежутка             : 42  мс. (1,00 видеокадр)
    Время предзагрузки промежутка            : 500  мс.
    Язык                                     : Не визначено
    Аудио #2
    Идентификатор                            : 2
    Формат                                   : AC-3
    Формат/Информация                        : Audio Coding 3
    Расширение режима                        : CM (complete main)
    Параметр Endianness формата              : Big
    Идентификатор кодека                     : 2000
    Продолжительность                        : 1 ч. 48 м.
    Вид битрейта                             : Постоянный
    Битрейт                                  : 192 Кбит/сек
    Каналы                                   : 2 канала
    Расположение каналов                     : Front: L R
    Частота                                  : 48,0 КГц
    Битовая глубина                          : 16 бит
    Метод сжатия                             : С потерями
    Размер потока                            : 149 Мбайт (9%)
    Выравнивание                             : Разделение по промежуткам
    Продолжительность промежутка             : 42  мс. (1,00 видеокадр)
    Время предзагрузки промежутка            : 500  мс.

    MediaInfo: 2 частина

    Общее
    Полное имя                               : \The Gods Must Be Crazy. Dilogy (1980,1989) DVDRip\The Gods Must Be Crazy II (1989) DVDRip [Ukr AC3_2.0,Eng].avi
    Формат                                   : AVI
    Формат/Информация                        : Audio Video Interleave
    Размер файла                             : 1,48 Гбайт
    Продолжительность                        : 1 ч. 37 м.
    Общий поток                              : 2170 Кбит/сек
    Название фильма                          : Мабуть Боги з'їхали з глузду II / The Gods Must Be Crazy II (1989)
    Название фильма/Страна                   : South Africa, Botswana
    Исполнитель                              : N!xau, Lena Farugia, Hans Strydom
    Режиссёр                                 : Jamie Uys
    Оператор                                 : Buster Reynolds
    Запись произвёл                          : Jamie Uys
    Изменено                                 : Renee Engelbrecht
    Продюсер                                 : Jerry Weintraub
    Композитор                               : Charles Fox
    Распространитель                         : Columbia Pictures
    Жанр                                     : Comedy
    Дата записи                              : 1989
    Программа кодирования                    : VirtualDubModUkr 1.5.10.2 (build 2542/release) VirtualDubMod build 2542/release
    Формат оригинала/Имя                     : Movie
    Правообладатель                          : Columbia Pictures
    Видео
    Идентификатор                            : 0
    Формат                                   : MPEG-4 Visual
    Параметр BVOP формата                    : 1
    Параметр QPel формата                    : Нет
    Параметр GMC формата                     : Без точки перехода
    Параметр матрицы формата                 : Default (H.263)
    Режим смешивания                         : Сжатый битовый поток
    Идентификатор кодека                     : DX50
    Идентификатор кодека/Подсказка           : DivX 5
    Продолжительность                        : 1 ч. 37 м.
    Битрейт                                  : 1772 Кбит/сек
    Ширина                                   : 720 пикселей
    Высота                                   : 384 пикселя
    Соотношение сторон                       : 1,85:1
    Частота кадров                           : 23,976 кадра/сек
    Цветовое пространство                    : YUV
    Субдискретизация насыщенности            : 4:2:0
    Битовая глубина                          : 8 бит
    Тип развёртки                            : Прогрессивная
    Метод сжатия                             : С потерями
    Бит/(Пиксели*Кадры)                      : 0.267
    Размер потока                            : 1,21 Гбайт (82%)
    Библиотека кодирования                   : DivX 6.8.0 (UTC 2007-12-04)
    Аудио #1
    Идентификатор                            : 1
    Формат                                   : AC-3
    Формат/Информация                        : Audio Coding 3
    Расширение режима                        : CM (complete main)
    Параметр Endianness формата              : Big
    Идентификатор кодека                     : 2000
    Продолжительность                        : 1 ч. 37 м.
    Вид битрейта                             : Постоянный
    Битрейт                                  : 192 Кбит/сек
    Каналы                                   : 2 канала
    Расположение каналов                     : Front: L R
    Частота                                  : 48,0 КГц
    Битовая глубина                          : 16 бит
    Метод сжатия                             : С потерями
    Размер потока                            : 134 Мбайт (9%)
    Выравнивание                             : Разделение по промежуткам
    Продолжительность промежутка             : 42  мс. (1,00 видеокадр)
    Время предзагрузки промежутка            : 500  мс.
    Аудио #2
    Идентификатор                            : 2
    Формат                                   : AC-3
    Формат/Информация                        : Audio Coding 3
    Профиль формата                          : Dolby Digital
    Расширение режима                        : CM (complete main)
    Параметр Endianness формата              : Big
    Идентификатор кодека                     : 2000
    Продолжительность                        : 1 ч. 37 м.
    Вид битрейта                             : Постоянный
    Битрейт                                  : 192 Кбит/сек
    Каналы                                   : 2 канала
    Расположение каналов                     : Front: L R
    Частота                                  : 48,0 КГц
    Битовая глубина                          : 16 бит
    Метод сжатия                             : С потерями
    Размер потока                            : 134 Мбайт (9%)
    Выравнивание                             : Разделение по промежуткам
    Продолжительность промежутка             : 42  мс. (1,00 видеокадр)
    Время предзагрузки промежутка            : 500  мс.
    Скачать .torrent

    Скачать торрент-файл бесплатно и на максимальной скорости!

    Как скачивать? · Что такое торрент? · Рейтинг и ограничения

    !ВНИМАНИЕ!
    Сайт не распространяет и не хранит электронные версии произведений, а занимается лишь лишь предоставлением доступа к создаваемому пользователями каталогу ссылок на торрент-файлы, которые содержат только списки хеш-сумм, убедительная просьба с жалобами обращаться напрямую к пользователю. Файлы для обмена на трекере предоставлены пользователями сайта, и администрация не несёт ответственности за их содержание. Просьба не заливать файлы, защищенные авторскими правами, а также файлы нелегального содержания!


    _________________


    Последний раз редактировалось: older (2015-11-07 15:07), всего редактировалось 1 раз
    [Профиль] [ЛС]

    -sasha2006

    Создавать темы 07-Ноя-2015 14:22 (спустя 14 дней)

           

    [Цитировать]

    older,

    _________________

    ░▒▓█▀▄▀▄▀▄█▓▒░
    [Профиль] [ЛС]
    Показать сообщения:    
    Ответить на тему

    Текущее время: Сегодня, в 12:20

    Часовой пояс: GMT + 2



    Вы не можете начинать темы
    Вы не можете отвечать на сообщения
    Вы не можете редактировать свои сообщения
    Вы не можете удалять свои сообщения
    Вы не можете голосовать в опросах
    Вы не можете прикреплять файлы к сообщениям
    Вы не можете скачивать файлы