BitTorrentTracker PerecTracker.org
BitTorrentTracker PerecTracker.org
    
Регистрация  ·  Вход
 
 · 
Забыли пароль?

  • Убийцы выходят на дорогу (Всеволод Пудовкин, Юрий Тарич) [1942, Военный, драма, SATRip-AVC]

    Ответить на тему
     
    Автор Сообщение

    Light

    Создавать темы 24-Окт-2015 00:42

           

    [Цитировать]

    -Убийцы выходят на дорогу(Школа подлости)-Жанр: Военный, драма
    Год выпуска: 1942
    Продолжительность: 00:59:14-Режиссёр: Всеволод Пудовкин, Юрий Тарич-В ролях: Ада Войцик, Ольга Жизнева, Софья Магарилл, Михаил Астангов, Борис Блинов, Александра Данилова, Александр Антонов, Александр Виолинов, Олег Жаков, Виктор Кулаков, Александр Румнев, Георгий Светлани.-Описание: По сценическим миниатюрам пьесы-обозрения Бертольда Брехта «Страх и отчаяние в Третьей империи». Фильм состоит из шести эпизодов из жизни фашисткой Германии, не связанных между собой.-Доп. информация:

    Производство: ЦОКС, СССР, 1942 г.
    Сценаристы: Мануэль Большинцов, Всеволод Пудовкин
    Операторы: Борис Волчек, Эра Савельева
    Композитор: Николай Крюков (II)
    Художник: Артур Бергер-Семпл: https://yadi.sk/i/OBz1MJdjjxVvb-Качество видео: SATRip-AVC
    Формат видео: MKV
    Видео кодек: H.264
    Аудио кодек: AC3
    Видео: 672@744x568 анаморф (1,309:1), 25 fps, ~2393 kbps
    Аудио: 48 kHz, AC3 Dolby Digital, 2/0 (L,R) ch, ~192 kbps-Интересные факты
    Альтернативное название фильма - "Школа подлости".-Последняя роль в кино Софьи Магарилл.-Идея фильма не вписывалась в официальную линию СССР, который с помощью плакатного кинематографа поддерживал образ врага, поэтому фильм на долгие годы был положен на полку.-Возможно, работа Юрия Тарича ограничилась разработкой ранних вариантов режиссёрского сценария.-Участие в программе «Звездное кино Алма-Аты ЦОКС 1942—1944» на МКФ «Евразия» (Алматы, 1998).
    -

    MediaInfo

    Лог

    ...last pass...
    avs4x264.exe: -L x264_64.exe --pass 2 --bitrate 2393 --preset medium --profile high --level 4.1 --ref 8 --merange 24 --bframes 8 --direct auto --trellis 2 --no-dct-decimate --subme 10 --me umh --sar 426:385 --stats "C:\Temp\0624.log" --output "C:\Temp\0624.264" "C:\Temp\0624.avs"
    raw [info]: 672x568p 426:385 @ 25/1 fps (cfr)
    x264 [info]: using SAR=426/385
    x264 [info]: using cpu capabilities: MMX2 SSE2Fast SSSE3 SSE4.2 LZCNT BMI1 BMI2
    x264 [info]: profile High, level 4.1
    x264 [info]: frame I:569 Avg QP:14.87 size: 51412
    x264 [info]: frame P:37151 Avg QP:17.56 size: 22442
    x264 [info]: frame B:51154 Avg QP:20.30 size: 3924

    x264 [info]: consecutive B-frames: 8.9% 31.0% 37.4% 20.7% 2.0% 0.0% 0.0% 0.0% 0.0%
    x264 [info]: mb I I16..4: 3.2% 79.1% 17.7%
    x264 [info]: mb P I16..4: 0.3% 4.5% 0.6% P16..4: 39.2% 36.5% 17.3% 0.0% 0.0% skip: 1.6%
    x264 [info]: mb B I16..4: 0.0% 0.2% 0.1% B16..8: 47.2% 15.7% 3.4% direct: 4.1% skip:29.3% L0:28.7% L1:46.2% BI:25.1%
    x264 [info]: 8x8 transform intra:83.1% inter:57.0%
    x264 [info]: direct mvs spatial:99.9% temporal:0.1%
    x264 [info]: coded y,uvDC,uvAC intra: 93.9% 0.0% 0.0% inter: 36.9% 0.0% 0.0%
    x264 [info]: i16 v,h,dc,p: 21% 37% 6% 35%
    x264 [info]: i8 v,h,dc,ddl,ddr,vr,hd,vl,hu: 14% 10% 6% 9% 13% 13% 11% 12% 12%
    x264 [info]: i4 v,h,dc,ddl,ddr,vr,hd,vl,hu: 15% 10% 3% 9% 13% 15% 11% 12% 11%
    x264 [info]: i8c dc,h,v,p: 100% 0% 0% 0%
    x264 [info]: Weighted P-Frames: Y:39.3% UV:0.0%
    x264 [info]: ref P L0: 56.7% 16.7% 13.2% 4.2% 2.5% 2.1% 1.9% 1.4% 1.0% 0.3%
    x264 [info]: ref B L0: 88.4% 7.8% 1.5% 0.8% 0.6% 0.6% 0.2%
    x264 [info]: ref B L1: 95.6% 4.4%
    x264 [info]: kb/s:2393.76
    x264 [total]: encoded 88874 frames, 5.86 fps, 2393.76 kb/s
    General
    Unique ID : 199686924920995510079414336598810581357 (0x963A4D85A9E38372A3E944C8AB28596D)
    Complete name : C:\Torrent\Убийцы выходят на дорогу.1942.SATRip-AVC by Dmitrio7197\Убийцы выходят на дорогу.1942.SATRip-AVC by Dmitrio7197.mkv
    Format : Matroska
    Format version : Version 2
    File size : 1.07 GiB
    Duration : 59mn 15s
    Overall bit rate : 2 588 Kbps
    Encoded date : UTC 2015-10-23 18:30:26
    Writing application : mkvmerge v6.1.0 ('Old Devil') built on Mar 4 2013 09:10:42
    Writing library : libebml v1.3.0 + libmatroska v1.4.0
    Video
    ID : 1
    Format : AVC
    Format/Info : Advanced Video Codec
    Format profile : High@L4.1
    Format settings, CABAC : Yes
    Format settings, ReFrames : 8 frames
    Codec ID : V_MPEG4/ISO/AVC
    Duration : 59mn 15s
    Bit rate : 2 393 Kbps
    Width : 672 pixels
    Height : 568 pixels
    Display aspect ratio : 4:3
    Original display aspect rat : 4:3
    Frame rate mode : Constant
    Frame rate : 25.000 fps
    Color space : YUV
    Chroma subsampling : 4:2:0
    Bit depth : 8 bits
    Scan type : Progressive
    Bits/(Pixel*Frame) : 0.251
    Stream size : 993 MiB (91%)
    Writing library : x264 core 130 r2273 b3065e6
    Encoding settings : cabac=1 / ref=8 / deblock=1:0:0 / analyse=0x3:0x113 / me=umh / subme=10 / psy=1 / psy_rd=1.00:0.00 / mixed_ref=1 / me_range=24 / chroma_me=1 / trellis=2 / 8x8dct=1 / cqm=0 / deadzone=21,11 / fast_pskip=1 / chroma_qp_offset=-2 / threads=6 / lookahead_threads=1 / sliced_threads=0 / nr=0 / decimate=0 / interlaced=0 / bluray_compat=0 / constrained_intra=0 / bframes=8 / b_pyramid=2 / b_adapt=1 / b_bias=0 / direct=3 / weightb=1 / open_gop=0 / weightp=2 / keyint=250 / keyint_min=25 / scenecut=40 / intra_refresh=0 / rc_lookahead=40 / rc=2pass / mbtree=1 / bitrate=2393 / ratetol=1.0 / qcomp=0.60 / qpmin=0 / qpmax=69 / qpstep=4 / cplxblur=20.0 / qblur=0.5 / ip_ratio=1.40 / aq=1:1.00
    Default : Yes
    Forced : No
    Audio
    ID : 2
    Format : AC-3
    Format/Info : Audio Coding 3
    Mode extension : CM (complete main)
    Format settings, Endianness : Big
    Codec ID : A_AC3
    Duration : 59mn 15s
    Bit rate mode : Constant
    Bit rate : 192 Kbps
    Channel(s) : 2 channels
    Channel positions : Front: L R
    Sampling rate : 48.0 KHz
    Bit depth : 16 bits
    Compression mode : Lossy
    Stream size : 81.4 MiB (7%)
    Default : Yes
    Forced : No

    Скриншоты

    -
    Скачать .torrent

    Скачать торрент-файл бесплатно и на максимальной скорости!

    Как скачивать? · Что такое торрент? · Рейтинг и ограничения

    !ВНИМАНИЕ!
    Сайт не распространяет и не хранит электронные версии произведений, а занимается лишь лишь предоставлением доступа к создаваемому пользователями каталогу ссылок на торрент-файлы, которые содержат только списки хеш-сумм, убедительная просьба с жалобами обращаться напрямую к пользователю. Файлы для обмена на трекере предоставлены пользователями сайта, и администрация не несёт ответственности за их содержание. Просьба не заливать файлы, защищенные авторскими правами, а также файлы нелегального содержания!


    _________________
    [Профиль] [ЛС]
    Показать сообщения:    
    Ответить на тему

    Текущее время: Сегодня, в 08:12

    Часовой пояс: GMT + 2



    Вы не можете начинать темы
    Вы не можете отвечать на сообщения
    Вы не можете редактировать свои сообщения
    Вы не можете удалять свои сообщения
    Вы не можете голосовать в опросах
    Вы не можете прикреплять файлы к сообщениям
    Вы не можете скачивать файлы