BitTorrentTracker PerecTracker.org
BitTorrentTracker PerecTracker.org
    
Регистрация  ·  Вход
 
 · 
Забыли пароль?

  • (Classical) Фиала, Покорный, Росетти (Розетти) – Концерты для двух валторн / Fiala, Pokorny, Rosetti (Michael Haydn) – Double Horn Concertos (Zdeněk & Bedřich Tylsar; Vajnar) - 1991, FLAC (image+.cue) lossless

    Ответить на тему
     
    Автор Сообщение

    Columb

    Создавать темы 26-Июл-2013 12:03

           

    [Цитировать]

    Фиала, Покорный, Росетти (Розетти) – Концерты для двух валторн / Fiala, Pokorný, Rosetti (Michael Haydn) – Double Horn Concertos (Zdeněk & Bedřich Tylsar; Vajnar)
    Жанр: Classical
    Страна-производитель диска: Германия
    Год издания диска: 1991
    Издатель (лейбл): Naxos
    Номер по каталогу: 8.550459
    Дата записи: февраль 1989 г., Братислава.
    Аудиокодек: FLAC
    Тип рипа: image+.cue
    Битрейт аудио: lossless
    Продолжительность: 01:13:32
    Источник: odeonmusic
    Наличие сканов в содержимом раздачи: да
    Треклист:
    Йозеф Фиала (1748 — 1816).
    Двойной валторновый концерт Es-dur.

    01. I. Allegro assai [08:25].
    02. II. Adagio [06:34].
    03. III. Rondo andante [04:19].
    Франтишек Ксавер Покорный (1729 — 1794).
    Двойной валторновый концерт F-dur.

    04. I. Allegro [07:31].
    05. II. Larghetto poco andante [04:43].
    06. III. Finale. Presto assai [02:55].
    Франческо Антонио Росетти (ок. 1750 — 1792).
    Двойной валторновый концерт As-dur (ориг. F-dur), C61/III:49 (март 1787).

    07. I. Allegro [10:00].
    08. II. Romance. Andante [04:55].
    09. III. Rondeau. Allegretto [06:07].
    Двойной валторновый концерт Es-dur, C55Q/III:54 (авторство спорное: Росетти или М. Гайдн).
    10. I. Allegro [06:27].
    11. II. Andante [05:28].
    12. III. Allegro. Tempo di menuetto [05:35].
    Исполнители:
    Zdeněk и Bedřich Tylsar (валторны).
    Capella Istropolitana.
    Дирижер František Vajnar.

    Лог создания рипа

    Exact Audio Copy V1.0 beta 3 from 29. August 2011
    EAC extraction logfile from 29. April 2013, 17:24
    Zdenek & Bedrich Tylsar / Fiala, Pkorny, Rosetti - Czech Horn Concertos - Zdenek and Bedrich Tylsar
    Used drive : TSSTcorpCDDVDW SH-222BB Adapter: 2 ID: 1
    Read mode : Secure
    Utilize accurate stream : Yes
    Defeat audio cache : Yes
    Make use of C2 pointers : No
    Read offset correction : 6
    Overread into Lead-In and Lead-Out : No
    Fill up missing offset samples with silence : Yes
    Delete leading and trailing silent blocks : No
    Null samples used in CRC calculations : Yes
    Used interface : Native Win32 interface for Win NT & 2000
    Used output format : User Defined Encoder
    Selected bitrate : 1024 kBit/s
    Quality : High
    Add ID3 tag : No
    Command line compressor : C:\Program Files\Exact Audio Copy\Flac\flac.exe
    Additional command line options : -8 -V -T "TITLE=%title%" -T "ARTIST=%artist%" -T "ALBUMARTIST=%albumartist%" -T "ALBUM=%albumtitle%" -T "DATE=%year%" -T "TRACKNUMBER=%tracknr%" -T "TRACKTOTAL=%numtracks%" -T "GENRE=%genre%" -T "COMMENT=%comment%" -T "PERFORMER=%albuminterpret%" -T "COMPOSER=%composer%" %source% -o %dest%
    TOC of the extracted CD
    Track | Start | Length | Start sector | End sector
    ---------------------------------------------------------
    1 | 0:00.00 | 8:27.15 | 0 | 38039
    2 | 8:27.15 | 6:38.00 | 38040 | 67889
    3 | 15:05.15 | 4:24.00 | 67890 | 87689
    4 | 19:29.15 | 7:35.00 | 87690 | 121814
    5 | 27:04.15 | 4:47.00 | 121815 | 143339
    6 | 31:51.15 | 3:01.00 | 143340 | 156914
    7 | 34:52.15 | 10:01.00 | 156915 | 201989
    8 | 44:53.15 | 4:57.00 | 201990 | 224264
    9 | 49:50.15 | 6:11.35 | 224265 | 252124
    10 | 56:01.50 | 6:30.02 | 252125 | 281376
    11 | 62:31.52 | 5:31.00 | 281377 | 306201
    12 | 68:02.52 | 5:36.08 | 306202 | 331409
    Range status and errors
    Selected range
    Filename G:\Ripped general\[1945] Fiala, Pkorny, Rosetti – Czech Horn Concertos – Zdenek and Bedrich Tylsar\Fiala, Pkorny, Rosetti - Czech Horn Concertos - Zdenek and Bedrich Tylsar.wav
    Peak level 97.7 %
    Extraction speed 8.0 X
    Range quality 100.0 %
    Test CRC F7375E19
    Copy CRC F7375E19
    Copy OK
    No errors occurred
    AccurateRip summary
    Track 1 cannot be verified as accurate (confidence 3) [8B3E322A], AccurateRip returned [6439ACF4] (AR v2)
    Track 2 cannot be verified as accurate (confidence 3) [43F417DB], AccurateRip returned [BAB7838E] (AR v2)
    Track 3 cannot be verified as accurate (confidence 3) [301901B6], AccurateRip returned [DEA66152] (AR v2)
    Track 4 cannot be verified as accurate (confidence 3) [4F51C583], AccurateRip returned [6D0E2967] (AR v2)
    Track 5 cannot be verified as accurate (confidence 3) [9CC883E1], AccurateRip returned [DACCA0FF] (AR v2)
    Track 6 cannot be verified as accurate (confidence 3) [A8B57424], AccurateRip returned [F1E6A606] (AR v2)
    Track 7 cannot be verified as accurate (confidence 3) [C85D4132], AccurateRip returned [AD8BE472] (AR v2)
    Track 8 cannot be verified as accurate (confidence 3) [F15350F5], AccurateRip returned [07DD6ABB] (AR v2)
    Track 9 cannot be verified as accurate (confidence 3) [35554F6C], AccurateRip returned [DF0CB08C] (AR v2)
    Track 10 cannot be verified as accurate (confidence 3) [181B3416], AccurateRip returned [C881D3E6] (AR v2)
    Track 11 cannot be verified as accurate (confidence 3) [81FBBB0B], AccurateRip returned [76C42327] (AR v2)
    Track 12 cannot be verified as accurate (confidence 3) [C42325BB], AccurateRip returned [82B8B60D] (AR v2)
    No tracks could be verified as accurate
    You may have a different pressing from the one(s) in the database
    End of status report

    Содержание индексной карты (.CUE)

    REM GENRE Classical
    REM DATE 1991
    REM DISCID B311420C
    REM COMMENT "ExactAudioCopy v1.0b3"
    PERFORMER "Zdenek & Bedrich Tylsar"
    TITLE "Fiala, Pokorny, Rosetti – Czech Horn Concertos – Zdenek and Bedrich Tylsar"
    FILE "Fiala, Pokorny, Rosetti – Czech Horn Concertos – Zdenek and Bedrich Tylsar.flac" WAVE
    TRACK 01 AUDIO
    TITLE "Fiala - Concerto in E Flat Major for Two Horns - I. Allegro assai"
    PERFORMER "Zdenek & Bedrich Tylsar"
    INDEX 01 00:00:00
    TRACK 02 AUDIO
    TITLE "Fiala - Concerto in E Flat Major for Two Horns - II. Adagio"
    PERFORMER "Zdenek & Bedrich Tylsar"
    INDEX 01 08:27:15
    TRACK 03 AUDIO
    TITLE "Fiala - Concerto in E Flat Major for Two Horns - III. Rondo andante"
    PERFORMER "Zdenek & Bedrich Tylsar"
    INDEX 01 15:05:15
    TRACK 04 AUDIO
    TITLE "Pokorny - Concerto in F Major for Two Horns - I. Allegro"
    PERFORMER "Zdenek & Bedrich Tylsar"
    INDEX 00 19:25:55
    INDEX 01 19:29:15
    TRACK 05 AUDIO
    TITLE "Pokorny - Concerto in F Major for Two Horns - II. Larghetto poco andante"
    PERFORMER "Zdenek & Bedrich Tylsar"
    INDEX 01 27:04:15
    TRACK 06 AUDIO
    TITLE "Pokorny - Concerto in F Major for Two Horns - III. Finale. Presto assai"
    PERFORMER "Zdenek & Bedrich Tylsar"
    INDEX 01 31:51:15
    TRACK 07 AUDIO
    TITLE "Rosetti - Concerto in A Flat Major for Two Horns - I. Allegro"
    PERFORMER "Zdenek & Bedrich Tylsar"
    INDEX 00 34:48:40
    INDEX 01 34:52:15
    TRACK 08 AUDIO
    TITLE "Rosetti - Concerto in A Flat Major for Two Horns - II. Romance. Andante"
    PERFORMER "Zdenek & Bedrich Tylsar"
    INDEX 01 44:53:15
    TRACK 09 AUDIO
    TITLE "Rosetti - Concerto in A Flat Major for Two Horns - III. Rondeau. Allegretto"
    PERFORMER "Zdenek & Bedrich Tylsar"
    INDEX 01 49:50:15
    TRACK 10 AUDIO
    TITLE "Rosetti - Concerto in E Flat Major for Two Horns - I. Allegro"
    PERFORMER "Zdenek & Bedrich Tylsar"
    INDEX 00 55:58:37
    INDEX 01 56:01:50
    TRACK 11 AUDIO
    TITLE "Rosetti - Concerto in E Flat Major for Two Horns - II. Andante"
    PERFORMER "Zdenek & Bedrich Tylsar"
    INDEX 01 62:31:52
    TRACK 12 AUDIO
    TITLE "Rosetti - Concerto in E Flat Major for Two Horns - III. Allegro. Tempo di menuetto"
    PERFORMER "Zdenek & Bedrich Tylsar"
    INDEX 01 68:02:52
    Скачать .torrent

    Скачать торрент-файл бесплатно и на максимальной скорости!

    Как скачивать? · Что такое торрент? · Рейтинг и ограничения

    !ВНИМАНИЕ!
    Сайт не распространяет и не хранит электронные версии произведений, а занимается лишь лишь предоставлением доступа к создаваемому пользователями каталогу ссылок на торрент-файлы, которые содержат только списки хеш-сумм, убедительная просьба с жалобами обращаться напрямую к пользователю. Файлы для обмена на трекере предоставлены пользователями сайта, и администрация не несёт ответственности за их содержание. Просьба не заливать файлы, защищенные авторскими правами, а также файлы нелегального содержания!

    [Профиль] [ЛС]
    Показать сообщения:    
    Ответить на тему

    Текущее время: Сегодня, в 02:55

    Часовой пояс: GMT + 2



    Вы не можете начинать темы
    Вы не можете отвечать на сообщения
    Вы не можете редактировать свои сообщения
    Вы не можете удалять свои сообщения
    Вы не можете голосовать в опросах
    Вы не можете прикреплять файлы к сообщениям
    Вы не можете скачивать файлы