BitTorrentTracker PerecTracker.org
BitTorrentTracker PerecTracker.org
    
Регистрация  ·  Вход
 
 · 
Забыли пароль?

  • Вічний / Forever / Сезон 1 (1-11 серії з 22) (Бред Андерсон, Джон Т. Кречмер, Зетна Фуентес) [2014 р., фантастика, драма, WEB-DLRip] DVO (Три Крапки) Ukr + Original

    Ответить на тему
     
    Автор Сообщение

    older

    Создавать темы 23-Окт-2015 20:14

           

    [Цитировать]

    Вічний / Forever / Сезон 1

    Рік випуску: 2014
    Країна: США
    Кіностудія / кінокомпанія: Lin Pictures, Warner Bros. Television / ABC
    Жанр: фантастика, драма
    Тривалість: 1 серія: ~ 00:43:00 (цілком серій: 22)
    Субтитри: відсутні
    Переклад: двоголосий, закадровий (професійний) - West Ukraine
    Аудіодоріжка: українська, англійська-Режисер: Бред Андерсон, Джон Т. Кречмер, Зетна Фуентес
    Продюсер: Ден Лін, Меттью Міллер, Рей Куїнлен
    Сценарій: Меттью Міллер, Кріс Федак, Філ Клеммер-Світова прем'єра: 22 вересня 2014
    Обмеження за віком: нема- -Актори: Йоан Ґріффіт, Алана Де Ла Гарза, Донні Кержаварц, Джоел Девід Мур, Джадд Хірш, Лорейн Тусейнт, Барбара Ів Херріс-Сюжет: Доктор Генрі Морган, талановитий судово-медичний експерт Нью-Йорка, має невеличкий секрет - йому 200 років. Коли Генрі було 35, він помер вперше. Незважаючи на безліч смертей, він завжди відроджується 35-річним. Проводячи над собою жахливі експерименти, Генрі Морган намагається з’ясувати секрет свого безсмертя. Звісно вічне життя має свої переваги. Генрі об’їздив увесь світ, вивчив безліч мов, піднявся на Еверест і зустрів багато жінок. Але часом проявляється і зворотна сторона вічного буття: як от пережити кохання всього свого життя, Ебіґейл. Для Генрі вічність не дар, а прокляття.-Формат: AVI
    Якість: WEB-DLRip
    Відео кодек: XviD
    Відео: 720x400 (16:9), 1511 kbps, 23.976 fps, 0.219 bit/pixel
    Аудіо 1: AC3, 48 kHz, 2 ch, 192 kbps - Три Крапки
    Аудіо 2: 48 kHz, MPEG Layer 3, 2 ch, 192.00 kbps - Original-Джерело:

    MediaInfo

    Общее
    Полное имя                               : \Forever - Season 1 (2014) WEB-DLRip [Ukr, Eng] [3 Dots]\Forever - S01E01 (2014) WEB-DLRip [Ukr, Eng] [3 Dots].avi
    Формат                                   : AVI
    Формат/Информация                        : Audio Video Interleave
    Размер файла                             : 590 Мбайт
    Продолжительность                        : 43 м.
    Общий поток                              : 1909 Кбит/сек
    Программа кодирования                    : VirtualDubModUkr 1.5.10.2 (build 2542/release)
    Библиотека кодирования                   : VirtualDubMod build 2542/release
    Видео
    Идентификатор                            : 0
    Формат                                   : MPEG-4 Visual
    Профиль формата                          : Advanced Simple@L5
    Параметр BVOP формата                    : 2
    Параметр QPel формата                    : Нет
    Параметр GMC формата                     : Без точки перехода
    Параметр матрицы формата                 : Default (H.263)
    Идентификатор кодека                     : XVID
    Идентификатор кодека/Подсказка           : XviD
    Продолжительность                        : 43 м.
    Битрейт                                  : 1511 Кбит/сек
    Ширина                                   : 720 пикселей
    Высота                                   : 400 пикселей
    Соотношение сторон                       : 16:9
    Частота кадров                           : 23,976 кадра/сек
    Цветовое пространство                    : YUV
    Субдискретизация насыщенности            : 4:2:0
    Битовая глубина                          : 8 бит
    Тип развёртки                            : Прогрессивная
    Метод сжатия                             : С потерями
    Бит/(Пиксели*Кадры)                      : 0.219
    Размер потока                            : 467 Мбайт (79%)
    Библиотека кодирования                   : XviD 1.2.1 (UTC 2008-12-04)
    Аудио #1
    Идентификатор                            : 1
    Формат                                   : AC-3
    Формат/Информация                        : Audio Coding 3
    Расширение режима                        : CM (complete main)
    Параметр Endianness формата              : Big
    Идентификатор кодека                     : 2000
    Продолжительность                        : 43 м.
    Вид битрейта                             : Постоянный
    Битрейт                                  : 192 Кбит/сек
    Каналы                                   : 2 канала
    Расположение каналов                     : Front: L R
    Частота                                  : 48,0 КГц
    Битовая глубина                          : 16 бит
    Метод сжатия                             : С потерями
    Размер потока                            : 59,4 Мбайт (10%)
    Выравнивание                             : Разделение по промежуткам
    Продолжительность промежутка             : 42  мс. (1,00 видеокадр)
    Время предзагрузки промежутка            : 500  мс.
    Аудио #2
    Идентификатор                            : 2
    Формат                                   : MPEG Audio
    Версия формата                           : Version 1
    Профиль формата                          : Layer 3
    Режим                                    : Joint stereo
    Идентификатор кодека                     : 55
    Идентификатор кодека/Подсказка           : MP3
    Продолжительность                        : 43 м.
    Вид битрейта                             : Постоянный
    Битрейт                                  : 192 Кбит/сек
    Каналы                                   : 2 канала
    Частота                                  : 48,0 КГц
    Метод сжатия                             : С потерями
    Размер потока                            : 59,4 Мбайт (10%)
    Выравнивание                             : Соединение по промежуткам
    Продолжительность промежутка             : 42  мс. (1,00 видеокадр)
    Время предзагрузки промежутка            : 504  мс.
    Библиотека кодирования                   : LAME3.99.5`юЎ82°8Мо

    Скріншоти

    Перелік серій

    01. Pilot
    02. Look Before You Leap
    03. Fountain of Youth
    04. The Art of Murder
    05. The Pugilist Break
    06. The Frustrating Thing About Psychopaths
    07. New York Kids
    08. The Ecstasy of Agony
    09. 6 A.M.
    10. The Man in the Killer Suit
    11. Skinny Dipper
    Скачать .torrent

    Скачать торрент-файл бесплатно и на максимальной скорости!

    Как скачивать? · Что такое торрент? · Рейтинг и ограничения

    !ВНИМАНИЕ!
    Сайт не распространяет и не хранит электронные версии произведений, а занимается лишь лишь предоставлением доступа к создаваемому пользователями каталогу ссылок на торрент-файлы, которые содержат только списки хеш-сумм, убедительная просьба с жалобами обращаться напрямую к пользователю. Файлы для обмена на трекере предоставлены пользователями сайта, и администрация не несёт ответственности за их содержание. Просьба не заливать файлы, защищенные авторскими правами, а также файлы нелегального содержания!


    _________________
    [Профиль] [ЛС]
    Показать сообщения:    
    Ответить на тему

    Текущее время: Сегодня, в 14:20

    Часовой пояс: GMT + 2



    Вы не можете начинать темы
    Вы не можете отвечать на сообщения
    Вы не можете редактировать свои сообщения
    Вы не можете удалять свои сообщения
    Вы не можете голосовать в опросах
    Вы не можете прикреплять файлы к сообщениям
    Вы не можете скачивать файлы