BitTorrentTracker PerecTracker.org
BitTorrentTracker PerecTracker.org
    
Регистрация  ·  Вход
 
 · 
Забыли пароль?

  • Подалі від шаленої юрми / Far from the Madding Crowd (Томас Вінтерберг)[2015 р., драма, мелодрама, BDRip] DUB (Ukr)

    Ответить на тему
     
    Автор Сообщение

    older

    Создавать темы 23-Окт-2015 19:29

           

    [Цитировать]

    Подалі від шаленої юрми / Far from the Madding Crowd

    Рік випуску: 2015
    Країна: Великобританія , США
    Кіностудія / кінокомпанія: BBC Films, DNA Films, Fox Searchlight Pictures
    Жанр: драма, мелодрама
    Тривалість: 01:58:52
    Субтитри: відсутні
    Переклад: дубльований (професійний)
    Аудіодоріжка: українська-Режисер: Томас Вінтерберг
    Продюсер: Ендрю МакДональд, Аллон Річ, Крістін Ланган
    Сценарій: Девід Ніколс, Томас Харді-Світова прем'єра: 17 квітня 2015
    Прем'єра в Україні: 14 травня 2015
    Обмеження за віком: нема- -Актори: Кері Малліґан / Carey Mulligan, Маттіас Шонартс / Matthias Schoenaerts, Тіллі Восберґ / Tilly Vosburgh, Марк Вінґет / Mark Wingett, Доріан Лок / Dorian Lough, Сем Філіпс / Sam Phillips, Том Старрідж / Tom Sturridge, Джуно Темпл / Juno Temple, Бредлі Голл / Bradley Hall, Гілтон МакРей / Hilton McRae, Джессіка Барден / Jessica Barden-Сюжет: Екранізація роману Томаса Гарді. Молода, красива і незалежна жінка підтримує стосунки з трьома абсолютно різними чоловіками, кожен з яких мріє заволодіти її серцем.-Формат: AVI
    Якість: BDRip
    Відео кодек: XviD
    Відео: 720x304 (2,35:1), 1291 kbps, 23.976 fps, 0.246 bit/pixel
    Аудіо: AC3, 48 kHz, 6 ch, 448 kbps-Джерело:

    MediaInfo

    Общее
    Полное имя                               : \Far from the Madding Crowd (2015) BDRip [UKR] [Hurtom].avi
    Формат                                   : AVI
    Формат/Информация                        : Audio Video Interleave
    Размер файла                             : 1,45 Гбайт
    Продолжительность                        : 1 ч. 58 м.
    Общий поток                              : 1748 Кбит/сек
    Программа кодирования                    : VirtualDubMod 1.5.10.2 (build 2540/release)
    Библиотека кодирования                   : VirtualDubMod build 2540/release
    Видео
    Идентификатор                            : 0
    Формат                                   : MPEG-4 Visual
    Профиль формата                          : Advanced Simple@L5
    Параметр BVOP формата                    : 1
    Параметр QPel формата                    : Нет
    Параметр GMC формата                     : Без точки перехода
    Параметр матрицы формата                 : Выборочная
    Идентификатор кодека                     : XVID
    Идентификатор кодека/Подсказка           : XviD
    Продолжительность                        : 1 ч. 58 м.
    Битрейт                                  : 1291 Кбит/сек
    Ширина                                   : 720 пикселей
    Высота                                   : 304 пикселя
    Соотношение сторон                       : 2,35:1
    Частота кадров                           : 23,976 кадра/сек
    Цветовое пространство                    : YUV
    Субдискретизация насыщенности            : 4:2:0
    Битовая глубина                          : 8 бит
    Тип развёртки                            : Прогрессивная
    Метод сжатия                             : С потерями
    Бит/(Пиксели*Кадры)                      : 0.246
    Размер потока                            : 1,07 Гбайт (74%)
    Библиотека кодирования                   : XviD 73
    Аудио
    Идентификатор                            : 1
    Формат                                   : AC-3
    Формат/Информация                        : Audio Coding 3
    Расширение режима                        : CM (complete main)
    Параметр Endianness формата              : Big
    Идентификатор кодека                     : 2000
    Продолжительность                        : 1 ч. 58 м.
    Вид битрейта                             : Постоянный
    Битрейт                                  : 448 Кбит/сек
    Каналы                                   : 6 каналов
    Расположение каналов                     : Front: L C R, Side: L R, LFE
    Частота                                  : 48,0 КГц
    Битовая глубина                          : 16 бит
    Метод сжатия                             : С потерями
    Размер потока                            : 380 Мбайт (26%)
    Выравнивание                             : Разделение по промежуткам
    Продолжительность промежутка             : 42  мс. (1,00 видеокадр)
    Время предзагрузки промежутка            : 500  мс.

    Скріншоти

    Скачать .torrent

    Скачать торрент-файл бесплатно и на максимальной скорости!

    Как скачивать? · Что такое торрент? · Рейтинг и ограничения

    !ВНИМАНИЕ!
    Сайт не распространяет и не хранит электронные версии произведений, а занимается лишь лишь предоставлением доступа к создаваемому пользователями каталогу ссылок на торрент-файлы, которые содержат только списки хеш-сумм, убедительная просьба с жалобами обращаться напрямую к пользователю. Файлы для обмена на трекере предоставлены пользователями сайта, и администрация не несёт ответственности за их содержание. Просьба не заливать файлы, защищенные авторскими правами, а также файлы нелегального содержания!


    _________________
    [Профиль] [ЛС]
    Показать сообщения:    
    Ответить на тему

    Текущее время: Сегодня, в 08:57

    Часовой пояс: GMT + 2



    Вы не можете начинать темы
    Вы не можете отвечать на сообщения
    Вы не можете редактировать свои сообщения
    Вы не можете удалять свои сообщения
    Вы не можете голосовать в опросах
    Вы не можете прикреплять файлы к сообщениям
    Вы не можете скачивать файлы