BitTorrentTracker PerecTracker.org
BitTorrentTracker PerecTracker.org
    
Регистрация  ·  Вход
 
 · 
Забыли пароль?

  • Скорпіон / Scorpion / Сезон 1 (1-20 серії з 20) (Сем Хілл, Мел Демскі, Мілан Чейлях) [2014 р., бойовик, драма, BDRip] DVO (2+2) Ukr + Original

    Ответить на тему
     
    Автор Сообщение

    older

    Создавать темы 23-Окт-2015 18:59

           

    [Цитировать]

    Скорпіон / Scorpion / Сезон 1

    Рік випуску: 2014
    Країна: США
    Кіностудія / кінокомпанія: K/O Paper Products, Blackjack Productions, Perfect Storm Entertainment
    Жанр: бойовик, драма
    Тривалість: 00:41:00 - 1 серія (цілком серій: 20)
    Субтитри: відсутні
    Переклад: двоголосий, закадровий (професійний) - студія: 2+2
    Аудіодоріжка: українська, англійська-Режисер: Сем Хілл, Мел Демскі, Мілан Чейлях
    Продюсер: Скутер Браун, Пол Греллонг, Хезер Кадін
    Сценарій: Нік Сантора, Walter O'Brien, Ніколас Вуттон-Світова прем'єра: 22 вересня 2014
    Обмеження за віком: нема- -Актори: Еліес Габел, Кетрін МакФі, Едді Кей Томас, Джейдін Вонг, Ері Стідем, Роберт Патрік, Райлі Б. Сміт-Сюжет: Ексцентричний комп'ютерний геній, один з п'яти найрозумніших людей планети, Уолтер О'Брайан і його команда вундеркіндів не можуть нормально жити в суспільстві. Вони відчувають свою невлаштованість до тих пір, поки одного разу федеральний агент Департаменту внутрішньої безпеки Кейб Галло вербує їх для вирішення серйозної проблеми. О'Брайан і його друзі погоджуються допомогти національній безпеці. Команда геніїв одержує кодову назву "Скорпіон" і стає останньою лінією оборони проти складних високотехнологічних загроз по всьому світу.
    Сюжет серіалу частково заснований на реальних подіях.-Формат: AVI
    Якість: BDRip
    Відео кодек: XviD
    Відео: 720x400 (16:9), 1459 kbps, 23.976 fps, 0.211 bit/pixel
    Аудіо 1: AC3, 48 kHz, 2 ch, 192 kbps - студія: 2+2
    Аудіо 2: AC3, 48 kHz, 2 ch, 192 kbps - Original-Джерело:

    MediaInfo

    Общее
    Полное имя                               : \Scorpion.s01.BDRip.Ukr.Eng\Scorpion.s01e01.BDRip.Ukr.Eng.avi
    Формат                                   : AVI
    Формат/Информация                        : Audio Video Interleave
    Размер файла                             : 550 Мбайт
    Продолжительность                        : 41 м.
    Общий поток                              : 1858 Кбит/сек
    Тема                                     : Scorpion. Season 1, Episode 1. Pilot
    Программа кодирования                    : VirtualDubMod 1.5.10.2 (build 2540/release)
    Библиотека кодирования                   : VirtualDubMod build 2540/release
    Видео
    Идентификатор                            : 0
    Формат                                   : MPEG-4 Visual
    Профиль формата                          : Advanced Simple@L5
    Параметр BVOP формата                    : 2
    Параметр QPel формата                    : Нет
    Параметр GMC формата                     : Без точки перехода
    Параметр матрицы формата                 : Default (H.263)
    Идентификатор кодека                     : XVID
    Идентификатор кодека/Подсказка           : XviD
    Продолжительность                        : 41 м.
    Битрейт                                  : 1459 Кбит/сек
    Ширина                                   : 720 пикселей
    Высота                                   : 400 пикселей
    Соотношение сторон                       : 16:9
    Частота кадров                           : 23,976 кадра/сек
    Цветовое пространство                    : YUV
    Субдискретизация насыщенности            : 4:2:0
    Битовая глубина                          : 8 бит
    Тип развёртки                            : Прогрессивная
    Метод сжатия                             : С потерями
    Бит/(Пиксели*Кадры)                      : 0.211
    Размер потока                            : 432 Мбайт (79%)
    Библиотека кодирования                   : XviD 65
    Аудио #1
    Идентификатор                            : 1
    Формат                                   : AC-3
    Формат/Информация                        : Audio Coding 3
    Расширение режима                        : CM (complete main)
    Параметр Endianness формата              : Big
    Идентификатор кодека                     : 2000
    Продолжительность                        : 41 м.
    Вид битрейта                             : Постоянный
    Битрейт                                  : 192 Кбит/сек
    Каналы                                   : 2 канала
    Расположение каналов                     : Front: L R
    Частота                                  : 48,0 КГц
    Битовая глубина                          : 16 бит
    Метод сжатия                             : С потерями
    Размер потока                            : 56,8 Мбайт (10%)
    Выравнивание                             : Разделение по промежуткам
    Продолжительность промежутка             : 42  мс. (1,00 видеокадр)
    Время предзагрузки промежутка            : 500  мс.
    Заголовок                                : Ukrainian
    Аудио #2
    Идентификатор                            : 2
    Формат                                   : AC-3
    Формат/Информация                        : Audio Coding 3
    Расширение режима                        : CM (complete main)
    Параметр Endianness формата              : Big
    Идентификатор кодека                     : 2000
    Продолжительность                        : 41 м.
    Вид битрейта                             : Постоянный
    Битрейт                                  : 192 Кбит/сек
    Каналы                                   : 2 канала
    Расположение каналов                     : Front: L R
    Частота                                  : 48,0 КГц
    Битовая глубина                          : 16 бит
    Метод сжатия                             : С потерями
    Размер потока                            : 56,8 Мбайт (10%)
    Выравнивание                             : Разделение по промежуткам
    Продолжительность промежутка             : 42  мс. (1,00 видеокадр)
    Время предзагрузки промежутка            : 500  мс.
    Заголовок                                : English

    Скріншоти

    Перелік серій

    Scorpion. Season 1, Episode 1. Pilot
    Scorpion. Season 1, Episode 2. Single Point of Failure
    Scorpion. Season 1, Episode 3. A Cyclone
    Scorpion. Season 1, Episode 4. Shorthanded
    Scorpion. Season 1, Episode 5. Plutonium Is Forever
    Scorpion. Season 1, Episode 6. True Colors
    Scorpion. Season 1, Episode 7. Father's Day
    Scorpion. Season 1, Episode 8. Risky Business
    Scorpion. Season 1, Episode 9. Rogue Element
    Scorpion. Season 1, Episode 10. Talismans
    Scorpion. Season 1, Episode 11. Revenge
    Scorpion. Season 1, Episode 12. Dominoes
    Scorpion. Season 1, Episode 13. Kill Screen
    Scorpion. Season 1, Episode 14. Charades
    Scorpion. Season 1, Episode 15. Forget Me Nots
    Scorpion. Season 1, Episode 16. Love Boat
    Scorpion. Season 1, Episode 17. Going South
    Scorpion. Season 1, Episode 18. Once Bitten, Twice Die
    Scorpion. Season 1, Episode 19. Young Hearts Spark Fire
    Scorpion. Season 1, Episode 20. Crossroads
    Скачать .torrent

    Скачать торрент-файл бесплатно и на максимальной скорости!

    Как скачивать? · Что такое торрент? · Рейтинг и ограничения

    !ВНИМАНИЕ!
    Сайт не распространяет и не хранит электронные версии произведений, а занимается лишь лишь предоставлением доступа к создаваемому пользователями каталогу ссылок на торрент-файлы, которые содержат только списки хеш-сумм, убедительная просьба с жалобами обращаться напрямую к пользователю. Файлы для обмена на трекере предоставлены пользователями сайта, и администрация не несёт ответственности за их содержание. Просьба не заливать файлы, защищенные авторскими правами, а также файлы нелегального содержания!


    _________________
    [Профиль] [ЛС]
    Показать сообщения:    
    Ответить на тему

    Текущее время: Сегодня, в 10:36

    Часовой пояс: GMT + 2



    Вы не можете начинать темы
    Вы не можете отвечать на сообщения
    Вы не можете редактировать свои сообщения
    Вы не можете удалять свои сообщения
    Вы не можете голосовать в опросах
    Вы не можете прикреплять файлы к сообщениям
    Вы не можете скачивать файлы