BitTorrentTracker PerecTracker.org
BitTorrentTracker PerecTracker.org
    
Регистрация  ·  Вход
 
 · 
Забыли пароль?

  • Убийцы выходят на дорогу (Всеволод Пудовкин, Юрий Тарич) [1942, Драма, SATRip]

    Ответить на тему
     
    Автор Сообщение

    Light

    Создавать темы 23-Окт-2015 16:18

           

    [Цитировать]

    Убийцы выходят на дорогу
    Жанр: Драма
    Год выпуска: 1942
    Продолжительность: 00:59:15
    Режиссёр: Всеволод Пудовкин, Юрий Тарич
    В ролях: Ада Войцик, Михаил Астангов, Софья Магарилл, Борис Блинов, Ольга Жизнева, Олег Жаков, Георгий Светлани, Александра Данилова
    Описание: По сценам пьесы-обозрения Б.Брехта «Страх и отчаяние в Третьей империи».
    «Документов, запрещающих фильм, разыскать не удалось. По всей видимости, это связано с утратой большей части архива ЦОКС, а также — с пожаром в квартире Пудовкина, происшедшим после его возвращения из эвакуации в Москву. По словам режиссера Д.И.Васильева (в передаче киноведа Т.Е.Запасник) фильм еще до показа высшему руководству был закрыт Художественным Советом студии. Очевидно, что установка картины на показ «двух Германий», вытекающая из довоенных интернационалистических традиций, оказался в противоречии с утверждением «образа врага», решаемого кинематографией этого времени в сугубо плакатном ключе. По всей видимости, чувствуя это, режиссеры хотели снять возникшее противоречие с помощью многочисленных «разъясняющих» титров. Не исключено также, что Художественный Совет студии насторожила и неосознанная аллюзорность, которой безусловно, отмечена картина (родители боятся, что на них донесет родной сын, простая немка проклинает фюрера и т.д.). Во всяком случае, в пользу этой версии свидетельствует тот факт, что фильм не был выпущен на экран и после смерти Сталина, и после ХХ съезда КПСС в числе других фильмов, не выпущенных в прокат в 30-50-е годы. Из-за отсутствия документов сложно установить и степень участия в партере каждого из режиссеров. Возможно, работа Ю.Тарича ограничилась разработкой ранних вариантов режиссерского сценария.
    Последняя роль в кино Софьи Магарилл.
    Фильм художественно-документальный. Несколько эпизодов из жизни фашисткой Германии, не связанных между собой. Сопровождаются пояснительными титрами.
    Семпл: http://multi-up.com/1072504
    Качество видео: SATRip
    Формат видео: AVI
    Видео: MPEG4, XviD, 688x512 (4:3), 25.000 fps, 2 395 Kbps (0.272 bit/pixel)
    Аудио: AC-3, 48.0 KHz, 2 ch, 192 Kbps, CBR

    MediaInfo

    Общее
    Полное имя : K:\Убийцы выходят на дорогу.avi
    Формат : AVI
    Формат/Информация : Audio Video Interleave
    Размер файла : 1,07 Гбайт
    Продолжительность : 59 м.
    Общий поток : 2597 Кбит/сек
    Название фильма : Убийцы выходят на дорогу (1942)
    Программа кодирования : VirtualDubMod 1.5.10.2 (build 2540/release)
    Библиотека кодирования : VirtualDubMod build 2540/release
    Авторское право : miha2154
    Видео
    Идентификатор : 0
    Формат : MPEG-4 Visual
    Профиль формата : Advanced Simple@L5
    Параметр BVOP формата : 1
    Параметр QPel формата : Нет
    Параметр GMC формата : Без точки перехода
    Параметр матрицы формата : Выборочная
    Идентификатор кодека : XVID
    Идентификатор кодека/Подсказка : XviD
    Продолжительность : 59 м.
    Битрейт : 2395 Кбит/сек
    Ширина : 688 пикселей
    Высота : 512 пикселей
    Соотношение сторон : 4:3
    Частота кадров : 25,000 кадров/сек
    Цветовое пространство : YUV
    Субдискретизация насыщенности : 4:2:0
    Битовая глубина : 8 бит
    Тип развёртки : Прогрессивная
    Метод сжатия : С потерями
    Бит/(Пиксели*Кадры) : 0.272
    Размер потока : 1015 Мбайт (92%)
    Библиотека кодирования : XviD 65
    Аудио
    Идентификатор : 1
    Формат : AC-3
    Формат/Информация : Audio Coding 3
    Расширение режима : CM (complete main)
    Параметр Endianness формата : Big
    Идентификатор кодека : 2000
    Продолжительность : 59 м.
    Вид битрейта : Постоянный
    Битрейт : 192 Кбит/сек
    Каналы : 2 канала
    Расположение каналов : Front: L R
    Частота : 48,0 КГц
    Метод сжатия : С потерями
    Размер потока : 81,4 Мбайт (7%)
    Выравнивание : Разделение по промежуткам
    Продолжительность промежутка : 40 мс. (1,00 видеокадр)
    Время предзагрузки промежутка : 500 мс.

    Скриншоты


    Скачать .torrent

    Скачать торрент-файл бесплатно и на максимальной скорости!

    Как скачивать? · Что такое торрент? · Рейтинг и ограничения

    !ВНИМАНИЕ!
    Сайт не распространяет и не хранит электронные версии произведений, а занимается лишь лишь предоставлением доступа к создаваемому пользователями каталогу ссылок на торрент-файлы, которые содержат только списки хеш-сумм, убедительная просьба с жалобами обращаться напрямую к пользователю. Файлы для обмена на трекере предоставлены пользователями сайта, и администрация не несёт ответственности за их содержание. Просьба не заливать файлы, защищенные авторскими правами, а также файлы нелегального содержания!


    _________________
    [Профиль] [ЛС]
    Показать сообщения:    
    Ответить на тему

    Текущее время: Сегодня, в 21:24

    Часовой пояс: GMT + 2



    Вы не можете начинать темы
    Вы не можете отвечать на сообщения
    Вы не можете редактировать свои сообщения
    Вы не можете удалять свои сообщения
    Вы не можете голосовать в опросах
    Вы не можете прикреплять файлы к сообщениям
    Вы не можете скачивать файлы