BitTorrentTracker PerecTracker.org
BitTorrentTracker PerecTracker.org
    
Регистрация  ·  Вход
 
 · 
Забыли пароль?

  • Пригоди Дживса і Вустера / Jeeves and Wooster / Сезони 1-4 (1-11 серії з 11) (Фердинанд Фейрфакс, Саймон Ленгтон, Роберт Янг) [1990–1993 р., комедія, DVDRip] MVO (1+1) Ukr + Original + Sub Eng

    Ответить на тему
     
    Автор Сообщение

    older

    Создавать темы 23-Окт-2015 11:40

           

    [Цитировать]

    Пригоди Дживса і Вустера / Jeeves and Wooster / Сезони 1-4

    Рік випуску: 1990–1993
    Країна: Великобританія
    Кіностудія / кінокомпанія: Carnival Films, Granada Television
    Жанр: комедія
    Тривалість: 1 серія: ~ 00:50:00 (цілком серій: 11)
    Субтитри: англійські
    Переклад: багатоголосий, закадровий (професійний) - студія: 1+1
    Аудіодоріжка: українська, англійська-Режисер: Фердинанд Фейрфакс, Саймон Ленгтон, Роберт Янг
    Продюсер: Брайан Істман, Саллі Хед, Аль Берджесс
    Сценарій: Клайв Екстон, П.Г. Вудхауз-Світова прем'єра: 22 квітня 1990
    Обмеження за віком: нема- -Актори: Джон Вуд Натт, Франческа фолу, Джон Тернер, Елізабет Мортон, Адам Блеквуд, Річард Брейн, Річард Гарнетт, Мартін Клунес, Саймон Тревес, Стівен Фрай, Хью Лорі, Річард Діксон, Роберт Доуз, Майкл Ріппер, Мері Вімбуш-Сюжет: Відомий британський комедійний телесеріал, знятий за мотивами романів Пелема Вудгауза про молодого англійського аристократа Берті Вустера та його кмітливого камердинера Реджинальда Дживса.-Формат: AVI
    Якість: DVDRip
    Відео кодек: XviD
    Відео: 640х480 (4:3), 1665 kbps, 25,000 fps, 0.217 bit/pixel
    Аудіо 1: AC3, 48 kHz, 2 ch, 192 kbps - студія: 1+1
    Аудіо 2: AC3, 48 kHz, 2 ch, 192 kbps - Original
    Субтитри: англійська, тип: програмні (м'які), формат: SRT-Джерело:

    Реліз

    Велика подяка: Tanat13 за збереження раритету, Віктору за допомогу, forever_maggot за допомогу з субтитрами.

    MediaInfo

    Общее
    Полное имя                               : \Jeeves & Wooster DVDRip (HURTOM)\Season 1 (1990)\s01e01 - In Court After the Boat Race [Ukr.AC3_2.0, Eng] DVDRip [Hurtom].avi
    Формат                                   : AVI
    Формат/Информация                        : Audio Video Interleave
    Размер файла                             : 747 Мбайт
    Продолжительность                        : 50 м.
    Общий поток                              : 2063 Кбит/сек
    Название фильма                          : Пригоди Дживса та Вустера / Jeeves & Wooster (1990)
    Программа кодирования                    : VirtualDubMod 1.5.10.2 (build 2540/release)
    Библиотека кодирования                   : VirtualDubMod build 2540/release
    Правообладатель                          : _oles (HURTOM.com)
    Видео
    Идентификатор                            : 0
    Формат                                   : MPEG-4 Visual
    Профиль формата                          : Advanced Simple@L5
    Параметр BVOP формата                    : 2
    Параметр QPel формата                    : Да
    Параметр GMC формата                     : Без точки перехода
    Параметр матрицы формата                 : Default (H.263)
    Идентификатор кодека                     : XVID
    Идентификатор кодека/Подсказка           : XviD
    Продолжительность                        : 50 м.
    Битрейт                                  : 1665 Кбит/сек
    Ширина                                   : 640 пикселей
    Высота                                   : 480 пикселей
    Соотношение сторон                       : 4:3
    Частота кадров                           : 25,000 кадров/сек
    Цветовое пространство                    : YUV
    Субдискретизация насыщенности            : 4:2:0
    Битовая глубина                          : 8 бит
    Тип развёртки                            : Прогрессивная
    Метод сжатия                             : С потерями
    Бит/(Пиксели*Кадры)                      : 0.217
    Размер потока                            : 602 Мбайт (81%)
    Библиотека кодирования                   : XviD 1.2.1 (UTC 2008-12-04)
    Аудио #1
    Идентификатор                            : 1
    Формат                                   : AC-3
    Формат/Информация                        : Audio Coding 3
    Расширение режима                        : CM (complete main)
    Параметр Endianness формата              : Big
    Идентификатор кодека                     : 2000
    Продолжительность                        : 50 м.
    Вид битрейта                             : Постоянный
    Битрейт                                  : 192 Кбит/сек
    Каналы                                   : 2 канала
    Расположение каналов                     : Front: L R
    Частота                                  : 48,0 КГц
    Битовая глубина                          : 16 бит
    Метод сжатия                             : С потерями
    Размер потока                            : 69,5 Мбайт (9%)
    Выравнивание                             : Разделение по промежуткам
    Продолжительность промежутка             : 40  мс. (1,00 видеокадр)
    Время предзагрузки промежутка            : 500  мс.
    Аудио #2
    Идентификатор                            : 2
    Формат                                   : AC-3
    Формат/Информация                        : Audio Coding 3
    Расширение режима                        : CM (complete main)
    Параметр Endianness формата              : Big
    Идентификатор кодека                     : 2000
    Продолжительность                        : 50 м.
    Вид битрейта                             : Постоянный
    Битрейт                                  : 192 Кбит/сек
    Каналы                                   : 2 канала
    Расположение каналов                     : Front: L R
    Частота                                  : 48,0 КГц
    Битовая глубина                          : 16 бит
    Метод сжатия                             : С потерями
    Размер потока                            : 69,5 Мбайт (9%)
    Выравнивание                             : Разделение по промежуткам
    Продолжительность промежутка             : 40  мс. (1,00 видеокадр)
    Время предзагрузки промежутка            : 500  мс.

    Скріншоти

    Перелік серій

    Сезон І
    1. In Court After the Boat Race (or, Jeeves' Arrival)
    2. Bertie Is in Love (or, Golf Tournament)
    3. The Village Sports Day at Twing (or, the Gambling Event)
    4. How Does Gussie Woo Madeline? (or, Hunger Strike)
    5. Will Anatole Return to Brinkley Court? (or, the Matchmaker)
    Сезон ІІ
    1.The Silver Jug (or Jeeves Saves the Cow Creamer)
    2.The Bassetts' Fancy Dress Ball (or, A Plan for Gussie)
    3.The Con (or, Pearls Mean Tears)
    4.Chuffy (or, Jeeves in the Country)
    5.The Mysterious Stranger (or, Kidnapped)
    6.Wooster with a Wife (or, Jeeves the Matchmaker)
    Сезон ІІI
    1.Safety in New York (or, Bertie Sets Sail)
    2.Bertie Ensures Bicky Can Continue to Live in Manhattan (or, the Full House)
    3.Cyril and the Broadway Musical (or, Introduction on Broadway)
    4.Bertie Takes Gussie's Place at Deverill Hall (or, Right Ho! Jeeves)
    5.Sir Watkyn Bassett's Memoirs (or, Hot Off the Press)
    6.Aunt Dahlia, Cornelia and Madeline (or, Comrade Bingo)
    Сезон ІV
    1.Return to New York
    2.Lady Florence Craye Arrives in New York (or, the Once and Future Ex)
    3.Honoria Glossop Turns Up (or, Bridegroom Wanted!)
    4.Arrested in a Night Club (or, the Delayed Arrival)
    5.Totleigh Towers (or, Trouble at Totleigh Towers)
    6.The Ex's Are Nearly Married Off (or, the Ties That Bind
    Скачать .torrent

    Скачать торрент-файл бесплатно и на максимальной скорости!

    Как скачивать? · Что такое торрент? · Рейтинг и ограничения

    !ВНИМАНИЕ!
    Сайт не распространяет и не хранит электронные версии произведений, а занимается лишь лишь предоставлением доступа к создаваемому пользователями каталогу ссылок на торрент-файлы, которые содержат только списки хеш-сумм, убедительная просьба с жалобами обращаться напрямую к пользователю. Файлы для обмена на трекере предоставлены пользователями сайта, и администрация не несёт ответственности за их содержание. Просьба не заливать файлы, защищенные авторскими правами, а также файлы нелегального содержания!


    _________________
    [Профиль] [ЛС]
    Показать сообщения:    
    Ответить на тему

    Текущее время: Сегодня, в 18:00

    Часовой пояс: GMT + 2



    Вы не можете начинать темы
    Вы не можете отвечать на сообщения
    Вы не можете редактировать свои сообщения
    Вы не можете удалять свои сообщения
    Вы не можете голосовать в опросах
    Вы не можете прикреплять файлы к сообщениям
    Вы не можете скачивать файлы