BitTorrentTracker PerecTracker.org
BitTorrentTracker PerecTracker.org
    
Регистрация  ·  Вход
 
 · 
Забыли пароль?

  • Агенти Щ.И.Т. / Agents of S.H.I.E.L.D. / Сезон 1 (1-22 серії з 22) (Вінс Місіано, Білл Джірхарт, Боббі Рот) [2013 р., фантастика, бойовик, драма, BDRip] DUB (Ukr)

    Ответить на тему
     
    Автор Сообщение

    older

    Создавать темы 23-Окт-2015 10:38

           

    [Цитировать]

    Агенти Щ.И.Т. / Agents of S.H.I.E.L.D. / Сезон 1

    Рік випуску: 2013
    Країна: США
    Кіностудія / кінокомпанія: Marvel Studios
    Жанр: фантастика, бойовик, драма
    Тривалість: 1 серія: ~ 00:44:00 (цілком серій: 22)
    Субтитри: відсутні
    Переклад: дубльований (професійний)
    Аудіодоріжка: українська-Режисер: Вінс Місіано, Білл Джірхарт, Боббі Рот
    Продюсер: Джеффрі Белл, Гаррі А. Браун, Алан Файн
    Сценарій: Джек Кірбі, Стен Лі, Моріссей Танчароен-Світова прем'єра: 19 липня 2013
    Обмеження за віком: нема- -Актори: Кларк Ґреґґ, Мінґ-На, Бретт Далтон, Хлоя Беннет, Єн де Кестекер, Елізабет Генстрідж, Дж. Авґуст Річардс, Б. Дж. Брітт, Девід Конрад, Білл Пекстон-Сюжет: Дії серіалу розгортаються після подій фільму «Месники». Агент Філ Колсон повертається в правоохоронну організацію під назвою Щ.И.Т., зібравши невелику команду професіоналів, він починає роботу над новими справами, які часом бувають дуже дивними.-Формат: AVI
    Якість: BDRip
    Відео кодек: XviD
    Відео: 720x400 (16:9), 1599 kbps, 23.976 fps, 0.232 bit/pixel
    Аудіо: AC3, 48 kHz, 2 ch, 192 kbps-Джерело:

    Реліз

    Переклад: Олекси Негребецького
    Режисер дубляжу: Ольга Фокіна
    Ролі дублювали: Андрій Самінін, Юлія Перенчук, Максим Кондратюк, Юрій Сосков та інші.
    Серіал дубльовано студією: LeDoyen на замовлення Disney Character Voices International.
    Щира подяка панам: slavik_v_z і OlegCena за запис звуку з ТБ.

    MediaInfo

    Общее
    Полное имя                               : \Agents of S.H.I.E.L.D. (Season 1) (2013-2014) BDRip [ukr] [Hurtom]\[s01e01] Pilot.avi
    Формат                                   : AVI
    Формат/Информация                        : Audio Video Interleave
    Размер файла                             : 568 Мбайт
    Продолжительность                        : 44 м.
    Общий поток                              : 1801 Кбит/сек
    Программа кодирования                    : VirtualDubModUkr 1.5.10.2 (build 2542/release)
    Библиотека кодирования                   : VirtualDubMod build 2542/release
    Видео
    Идентификатор                            : 0
    Формат                                   : MPEG-4 Visual
    Профиль формата                          : Advanced Simple@L5
    Параметр BVOP формата                    : 2
    Параметр QPel формата                    : Нет
    Параметр GMC формата                     : Без точки перехода
    Параметр матрицы формата                 : Default (MPEG)
    Идентификатор кодека                     : XVID
    Идентификатор кодека/Подсказка           : XviD
    Продолжительность                        : 44 м.
    Битрейт                                  : 1599 Кбит/сек
    Ширина                                   : 720 пикселей
    Высота                                   : 400 пикселей
    Соотношение сторон                       : 16:9
    Частота кадров                           : 23,976 кадра/сек
    Цветовое пространство                    : YUV
    Субдискретизация насыщенности            : 4:2:0
    Битовая глубина                          : 8 бит
    Тип развёртки                            : Прогрессивная
    Метод сжатия                             : С потерями
    Бит/(Пиксели*Кадры)                      : 0.232
    Размер потока                            : 504 Мбайт (89%)
    Библиотека кодирования                   : XviD 1.2.1 (UTC 2008-12-04)
    Аудио
    Идентификатор                            : 1
    Формат                                   : AC-3
    Формат/Информация                        : Audio Coding 3
    Расширение режима                        : CM (complete main)
    Параметр Endianness формата              : Big
    Идентификатор кодека                     : 2000
    Продолжительность                        : 44 м.
    Вид битрейта                             : Постоянный
    Битрейт                                  : 192 Кбит/сек
    Каналы                                   : 2 канала
    Расположение каналов                     : Front: L R
    Частота                                  : 48,0 КГц
    Битовая глубина                          : 16 бит
    Метод сжатия                             : С потерями
    Размер потока                            : 60,6 Мбайт (11%)
    Выравнивание                             : Разделение по промежуткам
    Продолжительность промежутка             : 42  мс. (1,00 видеокадр)
    Время предзагрузки промежутка            : 500  мс.

    Скріншоти

    Перелік серій

    01.Pilot
    02. 0-8-4
    03. The Asset
    04. Eye Spy
    05. Girl in the Flower Dress
    06. FZZT
    07. The Hub
    08. The Well
    09. Repairs
    10. The Bridge
    11. The Magical Place
    12. Seeds
    13. T.R.A.C.K.S.
    14. T.A.H.I.T.I.
    15. Yes Men
    16. End of the Beginning
    17. Turn, Turn, Turn
    18. Providence
    19. The Only Light in the Darkness
    20. Nothing Personal
    21. Ragtag
    22. Beginning of the End
    Скачать .torrent

    Скачать торрент-файл бесплатно и на максимальной скорости!

    Как скачивать? · Что такое торрент? · Рейтинг и ограничения

    !ВНИМАНИЕ!
    Сайт не распространяет и не хранит электронные версии произведений, а занимается лишь лишь предоставлением доступа к создаваемому пользователями каталогу ссылок на торрент-файлы, которые содержат только списки хеш-сумм, убедительная просьба с жалобами обращаться напрямую к пользователю. Файлы для обмена на трекере предоставлены пользователями сайта, и администрация не несёт ответственности за их содержание. Просьба не заливать файлы, защищенные авторскими правами, а также файлы нелегального содержания!


    _________________
    [Профиль] [ЛС]
    Показать сообщения:    
    Ответить на тему

    Текущее время: Сегодня, в 00:28

    Часовой пояс: GMT + 2



    Вы не можете начинать темы
    Вы не можете отвечать на сообщения
    Вы не можете редактировать свои сообщения
    Вы не можете удалять свои сообщения
    Вы не можете голосовать в опросах
    Вы не можете прикреплять файлы к сообщениям
    Вы не можете скачивать файлы