BitTorrentTracker PerecTracker.org
BitTorrentTracker PerecTracker.org
    
Регистрация  ·  Вход
 
 · 
Забыли пароль?

  • (Eurodance) VA - DJ Hits vol.14 - 1994, FLAC (image+.cue), lossless

    Ответить на тему
     
    Автор Сообщение

    Columb

    Создавать темы 26-Июл-2013 11:58

           

    [Цитировать]

    DJ Hits vol.14
    Жанр: Eurodance
    Страна-производитель диска: България
    Год издания: 1994
    Издатель (лейбл): Not On Label
    Номер по каталогу: CDP 620314
    Аудиокодек: FLAC (*.flac)
    Тип рипа: image+.cue
    Битрейт аудио: lossless
    Продолжительность: 1:09:28
    Источник (релизер): Рип своего диска
    Наличие сканов в содержимом раздачи: да
    Треклист:
    01. D.J. Bobo - Everybody (Radio Version)
    02. Fun Factory - Close To You (Close To Ragga Mix)
    03. Big Mountain - Baby I Love Your Way (Radio Version)
    04. Grid with Roger Dinsdale - Swamp Thing (Grid Southern Comfort Mix)
    05. Magic Affair - Give Me All Your Love (Radio Version)
    06. Tony Di Bard - The Real Thing (7" Remake)
    07. C.J. Lewis - Sweet For My Sweet (Original 12")
    08. Maxx - No More (Radio Version)
    09. Usura - Drive Me Crazy (Radio Cut)
    10. Aswad - Shine (Beatmasters 7" Mix)
    11. Curtis Blow - The Breaks '94 (Extended Version)
    12. Sir Prize - No More Lonely Nights (Soon Come Ragga Mix)
    13. Bingoboys - Sugardaddy (7" Radio Mix)
    14. 2 Unlimited - Burning Like Fire (Album Version)
    15. Jam & Spoon feat. Plavka - Find Me (Odyssey To Anyona)

    Лог создания рипа

    Exact Audio Copy V1.0 beta 3 from 29. August 2011
    Отчёт EAC об извлечении, выполненном 25. июля 2013, 17:36
    Various Artists / DJ Hits vol.14
    Дисковод: TSSTcorpCDDVDW SH-S203B Adapter: 0 ID: 1
    Режим чтения : Достоверность
    Использование точного потока : Да
    Отключение кэша аудио : Да
    Использование указателей C2 : Нет
    Коррекция смещения при чтении : 6
    Способность читать области Lead-in и Lead-out : Нет
    Заполнение пропущенных сэмплов тишиной : Да
    Удаление блоков с тишиной в начале и конце : Нет
    При вычислениях CRC использовались нулевые сэмплы : Да
    Интерфейс : Встроенный Win32-интерфейс для Win NT/2000
    Выходной формат : Пользовательский кодировщик
    Выбранный битрейт : 768 kBit/s
    Качество : Высокий
    Добавление ID3-тега : Нет
    Утилита сжатия : C:\Program Files (x86)\Exact Audio Copy\Flac\flac.exe
    Дополнительные параметры : -V -8 -T "Date=%year%" -T "Genre=%genre%" %source%
    TOC извлечённого CD
    Трек | Старт | Длительность | Начальный сектор | Конечный сектор
    ---------------------------------------------------------------------
    1 | 0:00.32 | 3:50.25 | 32 | 17306
    2 | 3:50.57 | 4:47.10 | 17307 | 38841
    3 | 8:37.67 | 4:26.00 | 38842 | 58791
    4 | 13:03.67 | 7:19.05 | 58792 | 91721
    5 | 20:22.72 | 4:55.10 | 91722 | 113856
    6 | 25:18.07 | 3:50.53 | 113857 | 131159
    7 | 29:08.60 | 4:36.52 | 131160 | 151911
    8 | 33:45.37 | 5:56.08 | 151912 | 178619
    9 | 39:41.45 | 3:39.55 | 178620 | 195099
    10 | 43:21.25 | 3:39.27 | 195100 | 211551
    11 | 47:00.52 | 6:14.18 | 211552 | 239619
    12 | 53:14.70 | 5:01.62 | 239620 | 262256
    13 | 58:16.57 | 3:47.18 | 262257 | 279299
    14 | 62:04.00 | 4:59.25 | 279300 | 301749
    15 | 67:03.25 | 7:29.27 | 301750 | 335451
    Характеристики диапазона извлечения и сообщения об ошибках
    Выбранный диапазон
    Имя файла D:\Новая папка (2)\Новая папка\Various Artists - DJ Hits vol.14.wav
    Пиковый уровень 100.0 %
    Скорость извлечения 8.4 X
    Качество диапазона 99.9 %
    CRC теста 38CAE0A9
    CRC копии 38CAE0A9
    Копирование... OK
    Ошибок не произошло
    AccurateRip: сводка
    Трек 1 отсутствует в базе данных
    Трек 2 отсутствует в базе данных
    Трек 3 отсутствует в базе данных
    Трек 4 отсутствует в базе данных
    Трек 5 отсутствует в базе данных
    Трек 6 отсутствует в базе данных
    Трек 7 отсутствует в базе данных
    Трек 8 отсутствует в базе данных
    Трек 9 отсутствует в базе данных
    Трек 10 отсутствует в базе данных
    Трек 11 отсутствует в базе данных
    Трек 12 отсутствует в базе данных
    Трек 13 отсутствует в базе данных
    Трек 14 отсутствует в базе данных
    Трек 15 отсутствует в базе данных
    Ни одного трека нет в базе AccurateRip
    Конец отчёта
    ==== Контрольная сумма отчёта 81031EB9CDA913A704AC13DBAB72E2C332DFD6BEB3E78B4B8425400DB253782A ====
    Скачать .torrent

    Скачать торрент-файл бесплатно и на максимальной скорости!

    Как скачивать? · Что такое торрент? · Рейтинг и ограничения

    !ВНИМАНИЕ!
    Сайт не распространяет и не хранит электронные версии произведений, а занимается лишь лишь предоставлением доступа к создаваемому пользователями каталогу ссылок на торрент-файлы, которые содержат только списки хеш-сумм, убедительная просьба с жалобами обращаться напрямую к пользователю. Файлы для обмена на трекере предоставлены пользователями сайта, и администрация не несёт ответственности за их содержание. Просьба не заливать файлы, защищенные авторскими правами, а также файлы нелегального содержания!

    [Профиль] [ЛС]
    Показать сообщения:    
    Ответить на тему

    Текущее время: Сегодня, в 03:14

    Часовой пояс: GMT + 2



    Вы не можете начинать темы
    Вы не можете отвечать на сообщения
    Вы не можете редактировать свои сообщения
    Вы не можете удалять свои сообщения
    Вы не можете голосовать в опросах
    Вы не можете прикреплять файлы к сообщениям
    Вы не можете скачивать файлы