BitTorrentTracker PerecTracker.org
BitTorrentTracker PerecTracker.org
    
Регистрация  ·  Вход
 
 · 
Забыли пароль?

  • Последние девушки / The Final Girls (Тодд Штраус-Шульсон / Todd Strauss-Schulson) [2015, США, ужасы, комедия, HDRip] MVO (iTunes)

    Ответить на тему
     
    Автор Сообщение

    rechyn

    Создавать темы 23-Окт-2015 07:54

           

    [Цитировать]

    Последние девушки / The Final Girls
    Страна: США
    Жанр: ужасы, комедия
    Год выпуска: 2015
    Продолжительность: 01:31:21
    Перевод: Профессиональный (многоголосый закадровый) iTunes
    Cубтитры: нет
    Оригинальная аудиодорожка: нет
    Режиссер: Тодд Штраус-Шульсон / Todd Strauss-Schulson
    В ролях: Нина Добрев, Таисса Фармига, Малин Акерман, Александр Людвиг, Алиа Шокат, Хлоя Бриджес, Адам Дивайн, Анджела Тримбур, Томас Миддлдитч, Джеки Таттл
    Описание: В центре событий — девушка, тяжело переживающая смерть матери, которая в 80-е была звездой слэшеров. В годовщину её смерти по странному стечению обстоятельств Макс с друзьями оказывается в одном из этих фильмов. Теперь они вместе должны противостоять преследующему их маньяку.
    Сэмпл: http://multi-up.com/1072397
    Качество видео: HDRip (исходник не известен)
    Формат видео: AVI
    Видео: Xvid 720x304 23.98fps 1 887 Kbps
    Аудио: Dolby AC3 48000Hz 6ch 384kbps

    MediaInfo

    Format : AVI
    Format/Info : Audio Video Interleave
    File size : 1.45 GiB
    Duration : 1h 31mn
    Overall bit rate : 2 280 Kbps
    Writing application : VirtualDubMod 1.5.10.2 (build 2540/release)
    Writing library : VirtualDubMod build 2540/release
    Video
    ID : 0
    Format : MPEG-4 Visual
    Format profile : AdvancedSimple@L5
    Format settings, BVOP : Yes
    Format settings, QPel : No
    Format settings, GMC : No warppoints
    Format settings, Matrix : Default (MPEG)
    Codec ID : XVID
    Codec ID/Hint : XviD
    Duration : 1h 31mn
    Bit rate : 1 887 Kbps
    Width : 720 pixels
    Height : 304 pixels
    Display aspect ratio : 2.35:1
    Frame rate : 23.976 fps
    Resolution : 24 bits
    Colorimetry : 4:2:0
    Scan type : Progressive
    Bits/(Pixel*Frame) : 0.360
    Stream size : 1.20 GiB (83%)
    Writing library : XviD 1.2.1 (UTC 2008-12-04)
    Audio
    ID : 1
    Format : AC-3
    Format/Info : Audio Coding 3
    Codec ID : 2000
    Duration : 1h 31mn
    Bit rate mode : Constant
    Bit rate : 384 Kbps
    Channel(s) : 6 channels
    Channel positions : Front: L C R, Surround: L R, LFE
    Sampling rate : 48.0 KHz
    Stream size : 251 MiB (17%)
    Alignment : Split accross interleaves
    Interleave, duration : 42 ms (1.00 video frame)
    Interleave, preload duration : 500 ms

    Скриншот c названием фильма

    Скриншоты

    Скачать .torrent

    Скачать торрент-файл бесплатно и на максимальной скорости!

    Как скачивать? · Что такое торрент? · Рейтинг и ограничения

    !ВНИМАНИЕ!
    Сайт не распространяет и не хранит электронные версии произведений, а занимается лишь лишь предоставлением доступа к создаваемому пользователями каталогу ссылок на торрент-файлы, которые содержат только списки хеш-сумм, убедительная просьба с жалобами обращаться напрямую к пользователю. Файлы для обмена на трекере предоставлены пользователями сайта, и администрация не несёт ответственности за их содержание. Просьба не заливать файлы, защищенные авторскими правами, а также файлы нелегального содержания!


    _________________
    [Профиль] [ЛС]
    Показать сообщения:    
    Ответить на тему

    Текущее время: Сегодня, в 22:25

    Часовой пояс: GMT + 2



    Вы не можете начинать темы
    Вы не можете отвечать на сообщения
    Вы не можете редактировать свои сообщения
    Вы не можете удалять свои сообщения
    Вы не можете голосовать в опросах
    Вы не можете прикреплять файлы к сообщениям
    Вы не можете скачивать файлы