BitTorrentTracker PerecTracker.org
BitTorrentTracker PerecTracker.org
    
Регистрация  ·  Вход
 
 · 
Забыли пароль?

  • Шерлок / Sherlock / Сезон 3 (1-3 серії з 3) (Пол МакГіган, Кокі Гідройч, Ерос Лін) [2013 р., трилер, драма, кримінал, детектив, WEB-DLRip] DUB (1+1) Ukr + Original

    Ответить на тему
     
    Автор Сообщение

    older

    Создавать темы 22-Окт-2015 19:01

           

    [Цитировать]

    Шерлок / Sherlock / Сезон 3

    Рік випуску: 2013
    Країна: Великобританія США
    Кіностудія / кінокомпанія: Hartswood Films, BBC Wales, WGBH / BBC One
    Жанр: трилер, драма, кримінал, детектив
    Тривалість: 1 серія: ~ 90 хв. (цілком серій: 3)
    Субтитри: відсутні
    Переклад: професійний, дубльований - студія: 1+1
    Аудіодоріжка: українська, англійська-Режисер: Пол МакГіган, Кокі Гідройч, Ерос Лін
    Продюсер: Сью верчу, Марк Гетісс, Стівен Моффат
    Сценарій: Марк Гетісс, Стівен Моффат, Артур Конан Дойл-Світова прем'єра: 25 липня 2010
    Прем'єра в Україні: 15 січня 2013
    Реліз на DVD: 1 лютого 2011, «Флагман-Трейд»
    Обмеження за віком: нема- -Актори: Бенедикт Камбербетч, Мартін Фріман, Саймон П. Дей, Уна Стаббс, Лу Брілі, Руперт Грейвз, Зої Телфорд-Сюжет: В третьому сезоні на вас чекає феєричне повернення Шерлока і одруження Ватсона. Ви дізнаєтеся, як Шерлок розрахувався з генієм злочинного світу Моріарті, навіщо він інсценував власне самогубство, а ще у вас з'явиться можливість спостерігати за новими пригодами улюблених героїв!-Формат: AVI
    Якість: WEB-DLRip
    Відео кодек: XviD
    Відео: 720x400 (16:9), 1995 kbps, 25,000, 0.277 bit/pixel
    Аудіо 1: AC3, 48 kHz, 2 ch, 256 kbps - студія: 1+1
    Аудіо 2: AC3, 48 kHz, 2 ch, 256 kbps - Original-Джерело:

    Реліз

    Щира подяка:
    За запис: BILko, Юра, РОМЕО, woxeloid.
    За синхронізацію: BILko.
    За ріп: BILko.
    За постер: Gelios.

    MediaInfo

    Общее
    Полное имя                               : \Sherlock - Season 3 (2013) WEBDLRip [Ukr, Eng]\Sherlock - S03E01 (2013) WEBDLRip [Ukr, Eng].avi
    Формат                                   : AVI
    Формат/Информация                        : Audio Video Interleave
    Размер файла                             : 1,52 Гбайт
    Продолжительность                        : 1 ч. 26 м.
    Общий поток                              : 2522 Кбит/сек
    Программа кодирования                    : VirtualDubModUkr 1.5.10.2 (build 2542/release)
    Библиотека кодирования                   : VirtualDubMod build 2542/release
    Видео
    Идентификатор                            : 0
    Формат                                   : MPEG-4 Visual
    Профиль формата                          : Advanced Simple@L5
    Параметр BVOP формата                    : 1
    Параметр QPel формата                    : Нет
    Параметр GMC формата                     : Без точки перехода
    Параметр матрицы формата                 : Default (MPEG)
    Идентификатор кодека                     : XVID
    Идентификатор кодека/Подсказка           : XviD
    Продолжительность                        : 1 ч. 26 м.
    Битрейт                                  : 1995 Кбит/сек
    Ширина                                   : 720 пикселей
    Высота                                   : 400 пикселей
    Соотношение сторон                       : 16:9
    Частота кадров                           : 25,000 кадров/сек
    Цветовое пространство                    : YUV
    Субдискретизация насыщенности            : 4:2:0
    Битовая глубина                          : 8 бит
    Тип развёртки                            : Прогрессивная
    Метод сжатия                             : С потерями
    Бит/(Пиксели*Кадры)                      : 0.277
    Размер потока                            : 1,21 Гбайт (79%)
    Библиотека кодирования                   : XviD 64
    Аудио #1
    Идентификатор                            : 1
    Формат                                   : AC-3
    Формат/Информация                        : Audio Coding 3
    Расширение режима                        : CM (complete main)
    Параметр Endianness формата              : Big
    Идентификатор кодека                     : 2000
    Продолжительность                        : 1 ч. 26 м.
    Вид битрейта                             : Постоянный
    Битрейт                                  : 256 Кбит/сек
    Каналы                                   : 2 канала
    Расположение каналов                     : Front: L R
    Частота                                  : 48,0 КГц
    Битовая глубина                          : 16 бит
    Метод сжатия                             : С потерями
    Размер потока                            : 158 Мбайт (10%)
    Выравнивание                             : Разделение по промежуткам
    Продолжительность промежутка             : 40  мс. (1,00 видеокадр)
    Время предзагрузки промежутка            : 500  мс.
    Аудио #2
    Идентификатор                            : 2
    Формат                                   : AC-3
    Формат/Информация                        : Audio Coding 3
    Расширение режима                        : CM (complete main)
    Параметр Endianness формата              : Big
    Идентификатор кодека                     : 2000
    Продолжительность                        : 1 ч. 26 м.
    Вид битрейта                             : Постоянный
    Битрейт                                  : 256 Кбит/сек
    Каналы                                   : 2 канала
    Расположение каналов                     : Front: L R
    Частота                                  : 48,0 КГц
    Битовая глубина                          : 16 бит
    Метод сжатия                             : С потерями
    Размер потока                            : 158 Мбайт (10%)
    Выравнивание                             : Разделение по промежуткам
    Продолжительность промежутка             : 40  мс. (1,00 видеокадр)
    Время предзагрузки промежутка            : 500  мс.

    Скріншоти

    Перелік серій

    01. The Empty Hearse / Порожній катафалк
    02. The Sign of Three / Ознаки третього
    03. His Last Vow / Його прощальна обітниця
    Скачать .torrent

    Скачать торрент-файл бесплатно и на максимальной скорости!

    Как скачивать? · Что такое торрент? · Рейтинг и ограничения

    !ВНИМАНИЕ!
    Сайт не распространяет и не хранит электронные версии произведений, а занимается лишь лишь предоставлением доступа к создаваемому пользователями каталогу ссылок на торрент-файлы, которые содержат только списки хеш-сумм, убедительная просьба с жалобами обращаться напрямую к пользователю. Файлы для обмена на трекере предоставлены пользователями сайта, и администрация не несёт ответственности за их содержание. Просьба не заливать файлы, защищенные авторскими правами, а также файлы нелегального содержания!


    _________________
    [Профиль] [ЛС]
    Показать сообщения:    
    Ответить на тему

    Текущее время: Сегодня, в 09:57

    Часовой пояс: GMT + 2



    Вы не можете начинать темы
    Вы не можете отвечать на сообщения
    Вы не можете редактировать свои сообщения
    Вы не можете удалять свои сообщения
    Вы не можете голосовать в опросах
    Вы не можете прикреплять файлы к сообщениям
    Вы не можете скачивать файлы