BitTorrentTracker PerecTracker.org
BitTorrentTracker PerecTracker.org
    
Регистрация  ·  Вход
 
 · 
Забыли пароль?

  • [iPad] Толстяк против всех / Paul Blart: Mall Cop 2 (Энди Фикмен / Andy Fickman ) [2015, США, Комедия, боевик, BDRip, SD (576p)] MVO + Original + sub (rus, eng)

    Ответить на тему
     
    Автор Сообщение

    rechyn

    Создавать темы 22-Окт-2015 15:06

           

    [Цитировать]

    Толстяк против всех / Paul Blart: Mall Cop 2
    «Vegas has a new high roller»
    4.659 / 10 4.30 / 10
    -Год выпуска: 2015
    Страна: США
    Жанр: Комедия, боевик
    Продолжительность: 01:34:00
    Перевод: Многоголосый закадровый (iTunes)]
    Оригинальная аудиодорожка: Есть
    Cубтитры: Русские, Английские
    Режиссёр: Энди Фикмен
    Сценарий: Кевин Джеймс, Ник Бакай
    Продюсер: Тодд Гарнер, Джек Джиррапуто, Кевин Джеймс
    Оператор: Дин Семлер
    Композитор: Руперт Грегсон-Уильямс
    Художник: Перри Энделин Блейк, Алан Ау, Женевьева Тиррелл
    Монтаж: Скотт Хилл
    В ролях: Кевин Джеймс, Рейни Родригес, Нил МакДонаф, Даниэлла Алонсо, Эдуардо Верастеги, Дэвид Генри, Ширли Найт, Гари Валентайн, Ана Гастейер, Николас Туртурро
    Бюджет: $30 000 000
    Сборы в США: $70 607 328
    Сборы в мире: + $33 100 000 = $103 707 328
    Мировая премьера: 9 апреля 2015
    Релиз на DVD: 20 августа 2015, «CP Дистрибуция»
    Описание: Охранник Пол отправляется в Лас-Вегас, чтобы посетить посвященную охране выставку вместе со своей дочерью Майей, прежде чем она уедет в колледж. На выставке Пол случайно узнает об ограблении и решает задержать преступников…-Качество исходника: BDRemux
    Качество: BDRip
    Тип: SD (576p)
    Контейнер: M4V
    Видео: H.264, 1024x560, 1.85:1, 2 200 Kbps, 23.976 fps
    Аудио 1: Русский/Многоголосый закадровый (iTunes), AAC / 2.0 / 156 Kbps / 48.0 KHz
    Аудио 2: Английский/Оригинальная дорожка , AAC / 2.0 / 156 Kbps / 48.0 KHz
    Аудио 3: Украинский/Многоголосый закадровый (iTunes), AAC / 2.0 / 157 Kbps / 48.0 KHz
    Субтитры 1: Русские полные
    Субтитры 2: Английские полные
    -

    iTunes Meta Tags

    Sort Name: Paul Blart: Mall Cop 2
    XID: Apple:vendor_id:2015-819054
    contentID: 978515291
    Screenwriters: Кевин Джеймс, Ник Бакай
    Producers: Тодд Гарнер, Джек Джиррапуто, Кевин Джеймс
    Director: Энди Фикмен
    Cast: Кевин Джеймс, Рейни Родригес, Эдуардо Верастеги, Даниэлла Алонсо, Нил МакДонаф, Дэвид Генри, Д.Б. Вудсайд, Николас Туртурро, Лони Лав, Гари Валентайн
    Studio: Happy Madison Productions
    Rating: 9
    Long Description: Охранник Пол отправляется в Лас-Вегас, чтобы посетить посвященную охране выставку вместе со своей дочерью Майей, прежде чем она уедет в колледж. На выставке Пол случайно узнает об ограблении и решает задержать преступников...
    Description: Охранник Пол отправляется в Лас-Вегас, чтобы посетить посвященную охране выставку вместе со своей дочерью Майей, прежде чем она уедет в колледж. На выставке Пол случайно узнает об ограблении и решает задержать преступников...
    Release Date: 2015-04-09T08:00:00Z
    Genre: Comedy
    Artist: Andy Fickman
    Name: Paul Blart: Mall Cop 2

    MediaInfo

    General
    Complete name                            : /Users/imac/HandBrake/Paul.Blart_Mall.Cop.2.(SD).(pk).m4v
    Format                                   : MPEG-4
    Codec ID                                 : M4V
    File size                                : 1.76 GiB
    Duration                                 : 1h 34mn
    Overall bit rate mode                    : Variable
    Overall bit rate                         : 2 678 Kbps
    Movie name                               : Paul Blart: Mall Cop 2
    Performer                                : Andy Fickman
    Genre                                    : Comedy
    Recorded date                            : UTC 2015-04-09 08:00:00
    Encoded date                             : UTC 2015-07-20 10:23:34
    Tagged date                              : UTC 2015-07-20 10:24:05
    Cover                                    : Yes
    sonm                                     : Paul Blart: Mall Cop 2
    desc                                     : Охранник Пол отправляется в Лас-Вегас, чтобы посетить посвященную охране выставку вместе со своей дочерью Майей, прежде чем она уедет в колледж. На выставке Пол случайно узнает об ограблении и решает задержать преступников...
    ldes                                     : Охранник Пол отправляется в Лас-Вегас, чтобы посетить посвященную охране выставку вместе со своей дочерью Майей, прежде чем она уедет в колледж. На выставке Пол случайно узнает об ограблении и решает задержать преступников...
    hdvd                                     : 2
    stik                                     : 9
    rtng                                     : 0
    cnID                                     : 978515291
    xid                                      : Apple:vendor_id:2015-819054
    iTunEXTC                                 : mpaa|PG|200|
    iTunMOVI                                 : <?xml version=\"1.0\" encoding=\"UTF-8\"?> / <!DOCTYPE plist PUBLIC \"-//Apple//DTD PLIST 1.0//EN\" \"http://anonym.to/?http://www.apple.com/DTDs/PropertyList-1.0.dtd\"> / <plist version=\"1.0\"> / <dict> /  <key>cast</key> /  <array> /   <dict> /    <key>name</key> /    <string>Кевин Джеймс</string> /   </dict> /   <dict> /    <key>name</key> /    <string>Рейни Родригес</string> /   </dict> /   <dict> /    <key>name</key> /    <string>Эдуардо Верастеги</string> /   </dict> /   <dict> /    <key>name</key> /    <string>Даниэлла Алонсо</string> /   </dict> /   <dict> /    <key>name</key> /    <string>Нил МакДонаф</string> /   </dict> /   <dict> /    <key>name</key> /    <string>Дэвид Генри</string> /   </dict> /   <dict> /    <key>name</key> /    <string>Д.Б. Вудсайд</string> /   </dict> /   <dict> /    <key>name</key> /    <string>Николас Туртурро</string> /   </dict> /   <dict> /    <key>name</key> /    <string>Лони Лав</string> /   </dict> /   <dict> /    <key>name</key> /    <string>Гари Валентайн</string> /   </dict> /  </array> /  <key>directors</key> /  <array> /   <dict> /    <key>name</key> /    <string>Энди Фикмен</string> /   </dict> /  </array> /  <key>producers</key> /  <array> /   <dict> /    <key>name</key> /    <string>Тодд Гарнер</string> /   </dict> /   <dict> /    <key>name</key> /    <string>Джек Джиррапуто</string> /   </dict> /   <dict> /    <key>name</key> /    <string>Кевин Джеймс</string> /   </dict> /  </array> /  <key>screenwriters</key> /  <array> /   <dict> /    <key>name</key> /    <string>Кевин Джеймс</string> /   </dict> /   <dict> /    <key>name</key> /    <string>Ник Бакай</string> /   </dict> /  </array> /  <key>studio</key> /  <string>Happy Madison Productions</string> / </dict> / </plist>
    Video #1
    ID                                       : 1
    Format                                   : AVC
    Format/Info                              : Advanced Video Codec
    Format profile                           : High@L3.2
    Format settings, CABAC                   : Yes
    Format settings, ReFrames                : 9 frames
    Codec ID                                 : avc1
    Codec ID/Info                            : Advanced Video Coding
    Duration                                 : 1h 34mn
    Bit rate mode                            : Variable
    Bit rate                                 : 2 200 Kbps
    Width                                    : 1 024 pixels
    Height                                   : 560 pixels
    Display aspect ratio                     : 1.85:1
    Frame rate mode                          : Variable
    Frame rate                               : 23.976 fps
    Minimum frame rate                       : 23.974 fps
    Maximum frame rate                       : 23.981 fps
    Color space                              : YUV
    Chroma subsampling                       : 4:2:0
    Bit depth                                : 8 bits
    Scan type                                : Progressive
    Bits/(Pixel*Frame)                       : 0.160
    Stream size                              : 1.44 GiB (82%)
    Writing library                          : x264 core 142 r2479 dd79a61
    Encoding settings                        : cabac=1 / ref=9 / deblock=1:0:0 / analyse=0x3:0x113 / me=umh / subme=9 / psy=1 / psy_rd=1.00:0.00 / mixed_ref=1 / me_range=32 / chroma_me=1 / trellis=1 / 8x8dct=1 / cqm=0 / deadzone=21,11 / fast_pskip=1 / chroma_qp_offset=-2 / threads=36 / lookahead_threads=4 / sliced_threads=0 / nr=0 / decimate=1 / interlaced=0 / bluray_compat=0 / constrained_intra=0 / bframes=6 / b_pyramid=2 / b_adapt=2 / b_bias=0 / direct=1 / weightb=1 / open_gop=0 / weightp=2 / keyint=240 / keyint_min=24 / scenecut=40 / intra_refresh=0 / rc_lookahead=40 / rc=2pass / mbtree=1 / bitrate=2200 / ratetol=1.0 / qcomp=0.60 / qpmin=0 / qpmax=69 / qpstep=4 / cplxblur=20.0 / qblur=0.5 / ip_ratio=1.40 / aq=1:1.00
    Language                                 : English
    Encoded date                             : UTC 2015-07-20 10:23:34
    Tagged date                              : UTC 2015-07-20 10:23:38
    Color primaries                          : BT.709-5, BT.1361, IEC 61966-2-4, SMPTE RP177
    Transfer characteristics                 : BT.709-5, BT.1361
    Matrix coefficients                      : BT.709-5, BT.1361, IEC 61966-2-4 709, SMPTE RP177
    Video #2
    ID                                       : 8
    Format                                   : JPEG
    Codec ID                                 : jpeg
    Duration                                 : 1h 34mn
    Bit rate mode                            : Variable
    Bit rate                                 : 1 339 bps
    Width                                    : 640 pixels
    Height                                   : 350 pixels
    Display aspect ratio                     : 1.85:1
    Frame rate mode                          : Variable
    Frame rate                               : 0.003 fps
    Minimum frame rate                       : 0.002 fps
    Maximum frame rate                       : 0.005 fps
    Color space                              : YUV
    Chroma subsampling                       : 4:2:0
    Bit depth                                : 8 bits
    Compression mode                         : Lossy
    Bits/(Pixel*Frame)                       : 1.993
    Stream size                              : 872 KiB (0%)
    Language                                 : English
    Encoded date                             : UTC 2015-07-20 10:23:44
    Tagged date                              : UTC 2015-07-20 10:23:45
    Audio #1
    ID                                       : 2
    Format                                   : AAC
    Format/Info                              : Advanced Audio Codec
    Format profile                           : LC
    Codec ID                                 : 40
    Duration                                 : 1h 34mn
    Bit rate mode                            : Variable
    Bit rate                                 : 156 Kbps
    Maximum bit rate                         : 271 Kbps
    Channel(s)                               : 2 channels
    Channel positions                        : Front: L R
    Sampling rate                            : 48.0 KHz
    Compression mode                         : Lossy
    Stream size                              : 105 MiB (6%)
    Language                                 : Russian
    Encoded date                             : UTC 2015-07-20 10:23:34
    Tagged date                              : UTC 2015-07-20 10:23:40
    Audio #2
    ID                                       : 3
    Format                                   : AAC
    Format/Info                              : Advanced Audio Codec
    Format profile                           : LC
    Codec ID                                 : 40
    Duration                                 : 1h 34mn
    Bit rate mode                            : Variable
    Bit rate                                 : 156 Kbps
    Maximum bit rate                         : 283 Kbps
    Channel(s)                               : 2 channels
    Channel positions                        : Front: L R
    Sampling rate                            : 48.0 KHz
    Compression mode                         : Lossy
    Stream size                              : 105 MiB (6%)
    Language                                 : English
    Encoded date                             : UTC 2015-07-20 10:23:34
    Tagged date                              : UTC 2015-07-20 10:23:40
    Audio #3
    ID                                       : 4
    Format                                   : AAC
    Format/Info                              : Advanced Audio Codec
    Format profile                           : LC
    Codec ID                                 : 40
    Duration                                 : 1h 34mn
    Bit rate mode                            : Variable
    Bit rate                                 : 157 Kbps
    Maximum bit rate                         : 283 Kbps
    Channel(s)                               : 2 channels
    Channel positions                        : Front: L R
    Sampling rate                            : 48.0 KHz
    Compression mode                         : Lossy
    Stream size                              : 106 MiB (6%)
    Language                                 : Ukrainian
    Encoded date                             : UTC 2015-07-20 10:23:34
    Tagged date                              : UTC 2015-07-20 10:23:40
    Text #1
    ID                                       : 5
    Format                                   : Timed text
    Muxing mode                              : sbtl
    Codec ID                                 : tx3g
    Duration                                 : 1h 29mn
    Bit rate mode                            : Variable
    Bit rate                                 : 114 bps
    Stream size                              : 74.5 KiB (0%)
    Language                                 : Russian
    Encoded date                             : UTC 2015-07-20 10:23:34
    Tagged date                              : UTC 2015-07-20 10:23:34
    Text #2
    ID                                       : 6
    Format                                   : Timed text
    Muxing mode                              : sbtl
    Codec ID                                 : tx3g
    Duration                                 : 1h 29mn
    Bit rate mode                            : Variable
    Bit rate                                 : 75 bps
    Stream size                              : 48.9 KiB (0%)
    Language                                 : English
    Encoded date                             : UTC 2015-07-20 10:23:34
    Tagged date                              : UTC 2015-07-20 10:23:34
    Text #3
    ID                                       : 7
    Format                                   : Apple text
    Codec ID                                 : text
    Duration                                 : 1h 34mn
    Bit rate mode                            : Variable
    Bit rate                                 : 1 bps
    Stream size                              : 375 Bytes (0%)
    Language                                 : English
    Encoded date                             : UTC 2015-07-20 10:23:40
    Tagged date                              : UTC 2015-07-20 10:23:40
    Menu
    00:00:00.000                             : Chapter 1
    00:04:21.803                             : Chapter 2
    00:14:20.193                             : Chapter 3
    00:20:36.861                             : Chapter 4
    00:25:51.049                             : Chapter 5
    00:32:20.939                             : Chapter 6
    00:36:45.620                             : Chapter 7
    00:39:56.519                             : Chapter 8
    00:47:54.413                             : Chapter 9
    00:53:26.495                             : Chapter 10
    00:59:11.798                             : Chapter 11
    01:06:07.505                             : Chapter 12
    01:12:24.131                             : Chapter 13
    01:19:40.109                             : Chapter 14
    01:23:42.893                             : Chapter 15
    01:27:23.655                             : Chapter 16

    x264 лог

    x264 [info]: frame I:1824  Avg QP:15.42  size: 99387
    x264 [info]: frame P:35276 Avg QP:18.35  size: 23148
    x264 [info]: frame B:98140 Avg QP:21.25  size:  5631
    x264 [info]: consecutive B-frames:  4.3%  5.0%  8.2% 45.7% 14.1% 19.7%  3.1%
    x264 [info]: mb I  I16..4: 10.0% 59.9% 30.2%
    x264 [info]: mb P  I16..4:  1.3%  6.7%  2.0%  P16..4: 38.6% 22.0% 16.0%  0.0%  0.0%    skip:13.5%
    x264 [info]: mb B  I16..4:  0.1%  0.7%  0.2%  B16..8: 38.2%  7.0%  2.2%  direct: 2.7%  skip:48.7%  L0:42.0% L1:48.2% BI: 9.8%
    x264 [info]: 8x8 transform intra:65.0% inter:72.7%
    x264 [info]: coded y,uvDC,uvAC intra: 81.3% 87.6% 69.8% inter: 19.3% 22.7% 7.7%
    x264 [info]: i16 v,h,dc,p: 35% 15%  8% 42%
    x264 [info]: i8 v,h,dc,ddl,ddr,vr,hd,vl,hu: 11%  8%  5% 10% 14% 14% 13% 12% 12%
    x264 [info]: i4 v,h,dc,ddl,ddr,vr,hd,vl,hu: 11%  8%  3%  9% 15% 15% 14% 12% 13%
    x264 [info]: i8c dc,h,v,p: 39% 22% 20% 19%
    x264 [info]: Weighted P-Frames: Y:2.3% UV:1.1%
    x264 [info]: ref P L0: 53.9% 11.6% 13.8%  5.9%  4.2%  3.7%  3.0%  1.9%  1.8%  0.3%  0.0%
    x264 [info]: ref B L0: 79.5%  9.3%  4.8%  2.1%  1.7%  1.4%  0.9%  0.3%
    x264 [info]: ref B L1: 93.3%  6.7%
    x264 [info]: kb/s:2199.00

    Скриншоты

    -

    Релиз подготовлен для просмотра на Apple TV, iPad, iPhone, iPod Touch.
    Для просмотра данного релиза на компьютере с ОС Windows рекомендуется использовать VLC media player
    Скачать .torrent

    Скачать торрент-файл бесплатно и на максимальной скорости!

    Как скачивать? · Что такое торрент? · Рейтинг и ограничения

    !ВНИМАНИЕ!
    Сайт не распространяет и не хранит электронные версии произведений, а занимается лишь лишь предоставлением доступа к создаваемому пользователями каталогу ссылок на торрент-файлы, которые содержат только списки хеш-сумм, убедительная просьба с жалобами обращаться напрямую к пользователю. Файлы для обмена на трекере предоставлены пользователями сайта, и администрация не несёт ответственности за их содержание. Просьба не заливать файлы, защищенные авторскими правами, а также файлы нелегального содержания!


    _________________
    [Профиль] [ЛС]
    Показать сообщения:    
    Ответить на тему

    Текущее время: Сегодня, в 00:28

    Часовой пояс: GMT + 2



    Вы не можете начинать темы
    Вы не можете отвечать на сообщения
    Вы не можете редактировать свои сообщения
    Вы не можете удалять свои сообщения
    Вы не можете голосовать в опросах
    Вы не можете прикреплять файлы к сообщениям
    Вы не можете скачивать файлы