BitTorrentTracker PerecTracker.org
BitTorrentTracker PerecTracker.org
    
Регистрация  ·  Вход
 
 · 
Забыли пароль?

  • Шерлок / Sherlock / Сезон 1 (1-3 серії з 3) (Пол МакГіган, Кокі Гідройч, Ерос Лін) [2010 р., трилер, драма, кримінал, детектив, BDRip] DUB+MVO (1+1, BaibaKo) Ukr + Original + Sub Eng

    Ответить на тему
     
    Автор Сообщение

    older

    Создавать темы 22-Окт-2015 07:54

           

    [Цитировать]

    Шерлок / Sherlock / Сезон 1

    Рік випуску: 2010
    Країна: Великобританія США
    Кіностудія / кінокомпанія: BBC Wales, Hartswood Films, Masterpiece Theatre
    Жанр: трилер, драма, кримінал, детектив
    Тривалість: 1 серія: ~ 01:30:00 хв. (цілком серій: 3)
    Субтитри: англійські
    Переклад: професійний дубльований , багатоголосий, закадровий (професійний) - студія: 1+1 & BaibaKo
    Аудіодоріжка: українська, англійська-Режисер: Пол МакГіган, Кокі Гідройч, Ерос Лін
    Продюсер: Сью верчу, Марк Гетісс, Стівен Моффат
    Сценарій: Марк Гетісс, Стівен Моффат, Артур Конан Дойл-Світова прем'єра: 25 липня 2010
    Прем'єра в Україні: 15 січня 2013
    Реліз на DVD: 1 лютого 2011, «Флагман-Трейд»
    Обмеження за віком: нема- -Актори: Бенедикт Камбербетч, Мартін Фріман, Уна Стаббс, Лу Брілі, Руперт Грейвс, Зої Телфорд, Вінетт Робінсон, Джемма Чан, Джині Спарк-Сюжет: 2010 рік. Військовий лікар Джон Ватсон повертається до Лондона після служби в Афганістані. Він став інвалідом після отриманого поранення, і абсолютно не уявляє, як прожити на військову пенсію, а тим паче зняти квартиру. Приятель радить Джону розділити витрати по зніманню квартири з ким-небудь ще. Він зводить його з ексцентричним приватним детективом на ім'я Шерлок, який грає на скрипці і може розповісти про співрозмовника все після двох хвилин спілкування ...
    "Шерлок" - один з найбільш очікуваних фільмів цього сезону. Міні-серіал, в якому роль Шерлока Холмса виконує Бенедикт Камбербетч (Benedict Cumberbatch), а доктора Ватсона - Мартін Фріман (Martin Freeman), став справжнім феноменом. "Шерлок" з великим успіхом пройшов на каналі ВВС цього літа. Його подивилися 7,5 мільйонів глядачів. Фільм обговорювали в Палаті Громад і в твіттері. А тепер він навіть надихає чоловічу колекцію наступної осені.-Формат: AVI
    Якість: BDRip
    Відео кодек: XviD
    Відео: 720x400 (16:9), 2162 kbps, 25,000 fps, 0.300 bit/pixel
    Аудіо 1: AC3, 48 kHz, 2 ch, 192 kbps - професійний дубльований
    Аудіо 2: AC3, 48 kHz, 2 ch, 192 kbps - окремим файлом, англійська - Original
    Аудіо 3: AC3, 48 kHz, 2 ch, 192 kbps - окремим файлом, українська, багатоголосий закадровий
    Субтитри: англійська, тип: програмні (м'які), формат: SRT-Джерело:

    Реліз

    Щира подяка за наданий сирий звук: Senou Natsuru
    Оформлення: radagastr
    Постер: Gelios

    MediaInfo

    Общее
    Полное имя                               : \Sherlock season 1 [2xUkr, Eng] BDRip [Hurtom]\Sherlock s01e01 [2xUkr, Eng] BDRip [Hurtom]\Sherlock s01e01 [Ukr, Eng] BDRip [Hurtom].avi
    Формат                                   : AVI
    Формат/Информация                        : Audio Video Interleave
    Размер файла                             : 1,45 Гбайт
    Продолжительность                        : 1 ч. 28 м.
    Общий поток                              : 2364 Кбит/сек
    Название фильма                          : Sherlock [Season 1] (2010) BDRip
    Режиссёр                                 : DaniLch
    Жанр                                     : Crime/Mystery
    Программа кодирования                    : VirtualDubMod 1.5.10.2 (build 2540/release)
    Библиотека кодирования                   : VirtualDubMod build 2540/release
    Правообладатель                          : http://hqclub.net/
    Примечание                               : R.G. HQCLUB
    Видео
    Идентификатор                            : 0
    Формат                                   : MPEG-4 Visual
    Профиль формата                          : Advanced Simple@L5
    Параметр BVOP формата                    : 1
    Параметр QPel формата                    : Нет
    Параметр GMC формата                     : Без точки перехода
    Параметр матрицы формата                 : Выборочная
    Идентификатор кодека                     : XVID
    Идентификатор кодека/Подсказка           : XviD
    Продолжительность                        : 1 ч. 28 м.
    Битрейт                                  : 2162 Кбит/сек
    Ширина                                   : 720 пикселей
    Высота                                   : 400 пикселей
    Соотношение сторон                       : 16:9
    Частота кадров                           : 25,000 кадров/сек
    Цветовое пространство                    : YUV
    Субдискретизация насыщенности            : 4:2:0
    Битовая глубина                          : 8 бит
    Тип развёртки                            : Прогрессивная
    Метод сжатия                             : С потерями
    Бит/(Пиксели*Кадры)                      : 0.300
    Размер потока                            : 1,33 Гбайт (91%)
    Библиотека кодирования                   : XviD 1.2.1 (UTC 2008-12-04)
    Аудио
    Идентификатор                            : 1
    Формат                                   : AC-3
    Формат/Информация                        : Audio Coding 3
    Расширение режима                        : CM (complete main)
    Параметр Endianness формата              : Big
    Идентификатор кодека                     : 2000
    Продолжительность                        : 1 ч. 28 м.
    Вид битрейта                             : Постоянный
    Битрейт                                  : 192 Кбит/сек
    Каналы                                   : 2 канала
    Расположение каналов                     : Front: L R
    Частота                                  : 48,0 КГц
    Битовая глубина                          : 16 бит
    Метод сжатия                             : С потерями
    Размер потока                            : 121 Мбайт (8%)
    Выравнивание                             : Разделение по промежуткам
    Продолжительность промежутка             : 40  мс. (1,00 видеокадр)
    Время предзагрузки промежутка            : 500  мс.

    Скріншоти

    Перелік серій

    Епізод 1: Етюд у рожевих тонах / A Study in Pink
    Епізод 2: Сліпий банкір / The Blind Banker
    Епізод 3: Велика гра / The Great Game
    Скачать .torrent

    Скачать торрент-файл бесплатно и на максимальной скорости!

    Как скачивать? · Что такое торрент? · Рейтинг и ограничения

    !ВНИМАНИЕ!
    Сайт не распространяет и не хранит электронные версии произведений, а занимается лишь лишь предоставлением доступа к создаваемому пользователями каталогу ссылок на торрент-файлы, которые содержат только списки хеш-сумм, убедительная просьба с жалобами обращаться напрямую к пользователю. Файлы для обмена на трекере предоставлены пользователями сайта, и администрация не несёт ответственности за их содержание. Просьба не заливать файлы, защищенные авторскими правами, а также файлы нелегального содержания!


    _________________
    [Профиль] [ЛС]
    Показать сообщения:    
    Ответить на тему

    Текущее время: Сегодня, в 16:23

    Часовой пояс: GMT + 2



    Вы не можете начинать темы
    Вы не можете отвечать на сообщения
    Вы не можете редактировать свои сообщения
    Вы не можете удалять свои сообщения
    Вы не можете голосовать в опросах
    Вы не можете прикреплять файлы к сообщениям
    Вы не можете скачивать файлы