Register  ·  Log in
Forgot password?

  • Кто там / Knock Knock (Элай Рот / Eli Roth) [2015, США, Чили, Триллер, HDRip] DVO

    Reply to topic
    Author Message


    Post 21-Oct-2015 23:18



    Кто там
    Knock Knock
    -Год выпуска: 2015
    Страна: США, Чили
    Жанр: Триллер
    Продолжительность: 01:39:20
    Перевод: Любительский (двухголосый закадровый) [Raim & NastR]
    Субтитры: нет
    Оригинальная аудиодорожка: нет-Режиссер: Элай Рот / Eli Roth-В ролях: Киану Ривз, Лоренца Иззо, Ана де Армас, Аарон Барнс, Игнасия Алламанд, Коллин Кэмп, Антонио Куэрча-Описание: Отправив семью за город, архитектор Эван остается на выходных дома один доделывать срочный проект.
    К нему стучатся две милые молодые девушки лет двадцати, насквозь промокшие и заблудившиеся. Эван не мог предположить, что протянутая рука помощи обернется для него чередой изощренных издевательств, изысканных пыток и медленного садистского уничтожения семьи…- -Семпл:Качество видео: HDRip
    Формат видео: AVI
    Видео: 720x304 (2.37:1), 23.976 fps, XviD build 50 ~1959 kbps avg, 0.37 bit/pixel
    Аудио: 48 kHz, AC3 Dolby Digital, 2/0 (L,R) ch, ~128 kbps-


    Complete name : Knock.Knock.2015.L2.HDRip.avi
    Format : AVI
    Format/Info : Audio Video Interleave
    File size : 1.46 GiB
    Duration : 1h 39mn
    Overall bit rate : 2 097 Kbps
    Writing application : VirtualDubMod | || (build 2550/release)
    Writing library : VirtualDubMod build 2550/release
    ID : 0
    Format : MPEG-4 Visual
    Format profile : Advanced Simple@L5
    Format settings, BVOP : 2
    Format settings, QPel : No
    Format settings, GMC : No warppoints
    Format settings, Matrix : Default (MPEG)
    Codec ID : XVID
    Codec ID/Hint : XviD
    Duration : 1h 39mn
    Bit rate : 1 960 Kbps
    Width : 720 pixels
    Height : 304 pixels
    Display aspect ratio : 2.35:1
    Frame rate : 23.976 fps
    Color space : YUV
    Chroma subsampling : 4:2:0
    Bit depth : 8 bits
    Scan type : Progressive
    Compression mode : Lossy
    Bits/(Pixel*Frame) : 0.373
    Stream size : 1.36 GiB (93%)
    Writing library : XviD 1.2.1 (UTC 2008-12-04)
    ID : 1
    Format : AC-3
    Format/Info : Audio Coding 3
    Mode extension : CM (complete main)
    Format settings, Endianness : Big
    Codec ID : 2000
    Duration : 1h 39mn
    Bit rate mode : Constant
    Bit rate : 128 Kbps
    Channel(s) : 2 channels
    Channel positions : Front: L R
    Sampling rate : 48.0 KHz
    Compression mode : Lossy
    Stream size : 90.9 MiB (6%)
    Alignment : Split accross interleaves
    Interleave, duration : 42 ms (1.00 video frame)
    Interleave, preload duratio : 500 ms


    Download .torrent

    Download free and at maximum speed!

    How to Download? · What is a torrent? · Ratings and Limitations

    The site does not extend and does not store electronic(digital) versions of products, and only gives access to a reference catalogue created by users on torrent-files which contain only lists of the hash-sums, the earnest entreaty, with complaints(abuse) to access directly to the user. Files for an exchange on tracker are given by users of a site, and the administration does not bear the responsibility for their maintenance. The request to not fill in the files protected by copyrights, and also files of the illegal maintenance!

    [Profile] [PM]
    Display posts from previous:    
    Reply to topic

    The time now is: Today 23:25

    All times are GMT + 3 Hours

    You cannot post new topics in this forum
    You cannot reply to topics in this forum
    You cannot edit your posts in this forum
    You cannot delete your posts in this forum
    You cannot vote in polls in this forum
    You cannot attach files in this forum
    You cannot download files in this forum