BitTorrentTracker PerecTracker.org
BitTorrentTracker PerecTracker.org
    
Регистрация  ·  Вход
 
 · 
Забыли пароль?

  • Тетя Маруся (Марк Брауде) [1985, киноповесть, DVB-AVC]

    Ответить на тему
     
    Автор Сообщение

    Light

    Создавать темы 21-Окт-2015 18:06

           

    [Цитировать]

    Тетя Маруся (2 серии)
    Жанр: киноповесть
    Страна: СССР
    Год выпуска: 1985
    Продолжительность: 01:03:12 + 01:04:42
    Режиссёр: Марк Брауде
    В ролях: Клара Лучко, Владимир Конкин, Ирина Шевчук, А. Добролюбов, Сережа Семянов, Анатолий Ромашин, Владимир Козел, Светлана Кузьмина, Римма Маркова, Юрий Катин-Ярцев, Валентина Титова, Алексей Кожевников, Людмила Ксенофонтова, Андрей Толубеев, Владимир Сичкарь
    Описание: По мотивам одноименной повести Галины Поповой.
    Простая русская женщина, потеряв мужа и сына, оказалась в чужой семье и воспитала чужого ребенка.
    ...Мария более тридцати лет живет в семье Алимовых. Когда-то судьба свела ее с Ларисой Алимовой, которая из-за болезни не могла растить своего сына Петю. Мария не прошла мимо чужого горя, она стала родной и близкой в этой семье, теперь она воспитывает уже детей Петра. Даже когда к Марии пришла любовь, она не оставила Петра без своей поддержки и заботы...
    Доп. информация:
    Сценарист: Галина Попова (II)
    Оператор: Анастасия Суханова
    Композитор: Евгений Глебов
    Художник: Валерий Назаров
    Производство: Беларусьфильм
    Запись потока *.ts с наземного цифрового телеканала "Беларусь 3", ремукс в *.mkv программой VideoReDo.

    Семпл: http://rusfolder.com/44357973
    Качество видео: DVB-AVC
    Видео кодек: H.264
    Формат видео: MKV
    Видео: MPEG4 Video (H264) 720x576 (49:36) 25fps, 2 206 Kbps
    Аудио: MPEG Audio 48000Hz stereo 256kbps

    MediaInfo

    GeneralUnique ID : 262581539604132251228556172789503175058 (0xC58B5D706C4F362C2D9193B810032992)Complete name : D:\Новая земля 2\Художественные фильмы\Тетя Маруся (1985)\Тетя Маруся (1985) 2с\Тетя Маруся_02_(1985).mkvFormat : MatroskaFormat version : Version 2File size : 1.14 GiBDuration : 1h 4mnOverall bit rate : 2 512 KbpsWriting application : Lavf52.64.2Writing library : Lavf52.64.2
    VideoID : 1Format : AVCFormat/Info : Advanced Video CodecFormat profile : Main@L3.0Format settings, CABAC : YesFormat settings, ReFrames : 4 framesFormat settings, GOP : M=4, N=24Codec ID : V_MPEG4/ISO/AVCDuration : 1h 4mnBit rate : 2 206 KbpsWidth : 720 pixelsHeight : 576 pixelsDisplay aspect ratio : 4:3Original display aspect ratio : 4:3Frame rate mode : ConstantFrame rate : 25.000 fpsStandard : PALColor space : YUVChroma subsampling : 4:2:0Bit depth : 8 bitsScan type : MBAFFScan order : Top Field FirstBits/(Pixel*Frame) : 0.213Stream size : 1 021 MiB (88%)Default : YesForced : NoColor primaries : BT.601 PALTransfer characteristics : BT.470 System B, BT.470 System GMatrix coefficients : BT.601Color range : Limited
    AudioID : 2Format : MPEG AudioFormat version : Version 1Format profile : Layer 2Codec ID : A_MPEG/L2Codec ID/Hint : MP2Duration : 1h 4mnBit rate mode : ConstantBit rate : 256 KbpsChannel(s) : 2 channelsSampling rate : 48.0 KHzCompression mode : LossyStream size : 118 MiB (10%)Language : EnglishDefault : YesForced : No

    Скриншоты

    Скачать .torrent

    Скачать торрент-файл бесплатно и на максимальной скорости!

    Как скачивать? · Что такое торрент? · Рейтинг и ограничения

    !ВНИМАНИЕ!
    Сайт не распространяет и не хранит электронные версии произведений, а занимается лишь лишь предоставлением доступа к создаваемому пользователями каталогу ссылок на торрент-файлы, которые содержат только списки хеш-сумм, убедительная просьба с жалобами обращаться напрямую к пользователю. Файлы для обмена на трекере предоставлены пользователями сайта, и администрация не несёт ответственности за их содержание. Просьба не заливать файлы, защищенные авторскими правами, а также файлы нелегального содержания!


    _________________
    [Профиль] [ЛС]
    Показать сообщения:    
    Ответить на тему

    Текущее время: Сегодня, в 22:40

    Часовой пояс: GMT + 2



    Вы не можете начинать темы
    Вы не можете отвечать на сообщения
    Вы не можете редактировать свои сообщения
    Вы не можете удалять свои сообщения
    Вы не можете голосовать в опросах
    Вы не можете прикреплять файлы к сообщениям
    Вы не можете скачивать файлы