BitTorrentTracker PerecTracker.org
BitTorrentTracker PerecTracker.org
    
Регистрация  ·  Вход
 
 · 
Забыли пароль?

  • Кливлендские пленницы / Cleveland Abduction (Алекс Калимниос / Alex Kalymnios) [2015, США, драма, криминал, биография, WEB-DLRip] MVO (iTunes)

    Ответить на тему
     
    Автор Сообщение

    rechyn

    Создавать темы 21-Окт-2015 18:06

           

    [Цитировать]

    Кливлендские пленницы / Cleveland Abduction-Год выпуска: 2015
    Страна: США
    Жанр: драма, криминал, биография
    Продолжительность: 01:27:33
    Перевод: Профессиональный (многоголосый закадровый) - iTunes
    Субтитры: нет
    Оригинальная аудиодорожка: нет- -Режиссер: Алекс Калимниос / Alex Kalymnios
    В ролях: Тэрин Мэннинг, Рэймонд Крус, Кэти Сариф, Саманта Дроук, Пэм Гриер, Джо Мортон, Джейн Моудер, Кристина Копф и др.
    Описание: Мать-одиночку, ставшую первой жертвой похитителя Ариеля Кастро, удерживают силой в его доме в течение 11 лет. Там она становится подругой и сестрой двум другим женщинам, похищенным Кастро.-Сэмпл-Качество видео: WEB-DLRip
    Формат видео: AVI
    Видео: XviD, 720x400 (16:9), 1846 kb/s, 23,976 fps, 0.267 bit/pixel
    Аудио: AC-3, 384 kb/s, 6 ch, 48 kHz, MVO-

    MediaInfo

    Общее
    Формат                                   : AVI
    Формат/Информация                        : Audio Video Interleave
    Размер файла                             : 1,37 Гбайт
    Продолжительность                        : 1 ч. 27 м.
    Общий поток                              : 2239 Кбит/сек
    Программа кодирования                    : VirtualDubMod 1.5.10.2 (build 2540/release)
    Библиотека кодирования                   : VirtualDubMod build 2540/release
    Видео
    Идентификатор                            : 0
    Формат                                   : MPEG-4 Visual
    Профиль формата                          : Advanced Simple@L5
    Параметр BVOP формата                    : 2
    Параметр QPel формата                    : Нет
    Параметр GMC формата                     : Без точки перехода
    Параметр матрицы формата                 : Default (MPEG)
    Идентификатор кодека                     : XVID
    Идентификатор кодека/Подсказка           : XviD
    Продолжительность                        : 1 ч. 27 м.
    Битрейт                                  : 1846 Кбит/сек
    Ширина                                   : 720 пикселей
    Высота                                   : 400 пикселей
    Соотношение сторон                       : 16:9
    Частота кадров                           : 23,976 кадра/сек
    Цветовое пространство                    : YUV
    Субдискретизация насыщенности            : 4:2:0
    Битовая глубина                          : 8 бит
    Тип развёртки                            : Прогрессивная
    Метод сжатия                             : С потерями
    Бит/(Пиксели*Кадры)                      : 0.267
    Размер потока                            : 1,13 Гбайт (82%)
    Библиотека кодирования                   : XviD 1.2.1 (UTC 2008-12-04)
    Аудио
    Идентификатор                            : 1
    Формат                                   : AC-3
    Формат/Информация                        : Audio Coding 3
    Расширение режима                        : CM (complete main)
    Параметр Endianness формата              : Big
    Идентификатор кодека                     : 2000
    Продолжительность                        : 1 ч. 27 м.
    Вид битрейта                             : Постоянный
    Битрейт                                  : 384 Кбит/сек
    Каналы                                   : 6 каналов
    Расположение каналов                     : Front: L C R, Side: L R, LFE
    Частота                                  : 48,0 КГц
    Метод сжатия                             : С потерями
    Размер потока                            : 240 Мбайт (17%)
    Выравнивание                             : Разделение по промежуткам
    Продолжительность промежутка             : 42  мс. (1,00 видеокадр)
    Время предзагрузки промежутка            : 500  мс.

    Скриншоты

    Скачать .torrent

    Скачать торрент-файл бесплатно и на максимальной скорости!

    Как скачивать? · Что такое торрент? · Рейтинг и ограничения

    !ВНИМАНИЕ!
    Сайт не распространяет и не хранит электронные версии произведений, а занимается лишь лишь предоставлением доступа к создаваемому пользователями каталогу ссылок на торрент-файлы, которые содержат только списки хеш-сумм, убедительная просьба с жалобами обращаться напрямую к пользователю. Файлы для обмена на трекере предоставлены пользователями сайта, и администрация не несёт ответственности за их содержание. Просьба не заливать файлы, защищенные авторскими правами, а также файлы нелегального содержания!


    _________________
    [Профиль] [ЛС]
    Показать сообщения:    
    Ответить на тему

    Текущее время: Сегодня, в 19:40

    Часовой пояс: GMT + 2



    Вы не можете начинать темы
    Вы не можете отвечать на сообщения
    Вы не можете редактировать свои сообщения
    Вы не можете удалять свои сообщения
    Вы не можете голосовать в опросах
    Вы не можете прикреплять файлы к сообщениям
    Вы не можете скачивать файлы