BitTorrentTracker PerecTracker.org
BitTorrentTracker PerecTracker.org
    
Регистрация  ·  Вход
 
 · 
Забыли пароль?

  • Козаки йдуть (Сергій Омельчук) [1991 р., пригодницький, TVRip] Ukr

    Ответить на тему
     
    Автор Сообщение

    older

    Создавать темы 21-Окт-2015 16:40

           

    [Цитировать]

    Козаки йдуть

    Рік випуску: 1991
    Країна: Україна
    Кіностудія / кінокомпанія: Національно-культурний виробничий центр ''Рось''
    Жанр: пригодницький
    Тривалість: 01:29:08
    Субтитри: відсутні
    Оригінальна аудіодоріжка: українська-Режисер: Сергій Омельчук
    Сценарій: Богдан Жолдак--Актори: Михайло Голубович, Інна Капінос, Лесь Задніпровський, Юрій Муравицький, Юрій Мажуга, Олег Масленников, Андрій Борисенко-Сюжет: Україна-Русь кінця XV сторіччя. Несподівано зникає весь виготовлений на мануфактурах порох. Козаки під керівництвом Максима Тритуза збираються разом, щоб розшукати один з обозів, який везе порох на Січ.
    Запорізькі козаки, які ведуть запеклу і безкомпромісну боротьбу з багаточисельними загарбниками - турками, татарами, польськими шляхтичами, - стали героями цієї пригодницької і захоплюючої стрічки. Вперше в історії українського кіно на екрані з"являються представники єзуїтського ордену.-Формат: AVI
    Якість: TVRip
    Відео кодек: DivX 5
    Відео: 512x368 (1,391), 986 kbps, 25,000 fps, 0.209 bit/pixel
    Аудіо: 44,1 kHz, MPEG Layer 3, 1 ch, 96.00 kbps-Джерело:

    MediaInfo

    Общее
    Полное имя                               : \Kozaky idut\Козаки йдуть.avi
    Формат                                   : AVI
    Формат/Информация                        : Audio Video Interleave
    Размер файла                             : 696 Мбайт
    Продолжительность                        : 1 ч. 29 м.
    Общий поток                              : 1091 Кбит/сек
    Видео
    Идентификатор                            : 0
    Формат                                   : MPEG-4 Visual
    Параметр BVOP формата                    : 1
    Параметр QPel формата                    : Нет
    Параметр GMC формата                     : Без точки перехода
    Параметр матрицы формата                 : Default (H.263)
    Режим смешивания                         : Сжатый битовый поток
    Идентификатор кодека                     : DX50
    Идентификатор кодека/Подсказка           : DivX 5
    Продолжительность                        : 1 ч. 29 м.
    Битрейт                                  : 986 Кбит/сек
    Ширина                                   : 512 пикселей
    Высота                                   : 368 пикселей
    Соотношение сторон                       : 1,391
    Частота кадров                           : 25,000 кадров/сек
    Цветовое пространство                    : YUV
    Субдискретизация насыщенности            : 4:2:0
    Битовая глубина                          : 8 бит
    Тип развёртки                            : Прогрессивная
    Метод сжатия                             : С потерями
    Бит/(Пиксели*Кадры)                      : 0.209
    Размер потока                            : 629 Мбайт (90%)
    Библиотека кодирования                   : DivX 5.1.1 (Maupiti) (UTC 2003-11-19)
    Аудио
    Идентификатор                            : 1
    Формат                                   : MPEG Audio
    Версия формата                           : Version 1
    Профиль формата                          : Layer 3
    Идентификатор кодека                     : 55
    Идентификатор кодека/Подсказка           : MP3
    Продолжительность                        : 1 ч. 29 м.
    Вид битрейта                             : Постоянный
    Битрейт                                  : 96,0 Кбит/сек
    Каналы                                   : 1 канал
    Частота                                  : 44,1 КГц
    Метод сжатия                             : С потерями
    Размер потока                            : 61,2 Мбайт (9%)
    Выравнивание                             : Разделение по промежуткам
    Продолжительность промежутка             : 40  мс. (1,00 видеокадр)
    Время предзагрузки промежутка            : 500  мс.

    Скріншоти

    Скачать .torrent

    Скачать торрент-файл бесплатно и на максимальной скорости!

    Как скачивать? · Что такое торрент? · Рейтинг и ограничения

    !ВНИМАНИЕ!
    Сайт не распространяет и не хранит электронные версии произведений, а занимается лишь лишь предоставлением доступа к создаваемому пользователями каталогу ссылок на торрент-файлы, которые содержат только списки хеш-сумм, убедительная просьба с жалобами обращаться напрямую к пользователю. Файлы для обмена на трекере предоставлены пользователями сайта, и администрация не несёт ответственности за их содержание. Просьба не заливать файлы, защищенные авторскими правами, а также файлы нелегального содержания!


    _________________
    [Профиль] [ЛС]

    older ®

    Создавать темы 21-Окт-2015 16:41 (спустя 55 секунд)

           

    [Цитировать]

    У кого є в кращій якості, поділіться. Або, скажіть де взяти.

    _________________
    [Профиль] [ЛС]
    Показать сообщения:    
    Ответить на тему

    Текущее время: Сегодня, в 03:02

    Часовой пояс: GMT + 2



    Вы не можете начинать темы
    Вы не можете отвечать на сообщения
    Вы не можете редактировать свои сообщения
    Вы не можете удалять свои сообщения
    Вы не можете голосовать в опросах
    Вы не можете прикреплять файлы к сообщениям
    Вы не можете скачивать файлы