BitTorrentTracker PerecTracker.org
BitTorrentTracker PerecTracker.org
    
Регистрация  ·  Вход
 
 · 
Забыли пароль?

  • Хроники ломбарда / Pawn Shop Chronicles (Уэйн Крэймер / Wayne Kramer) [2013, США, криминал, комедия, боевик, BDRip] Dub + Original Eng + subs (Rus, Eng SDH)

    Ответить на тему
     
    Автор Сообщение

    Light

    Создавать темы 21-Окт-2015 09:42

           

    [Цитировать]

    Хроники ломбарда / Pawn Shop Chronicles-Год выпуска: 2013
    Страна: США
    Жанр: криминал, комедия, боевик
    Продолжительность: 01:52:27
    Перевод: Профессиональный (полное дублирование) Пифагор
    + Оригинальная звуковая дорожка
    Субтитры: Русские, английские SDH (внешние srt*)-Режиссер: Уэйн Крэймер / Wayne Kramer
    В ролях: Мэтт Диллон, Брендан Фрейзер, Винсент Д’Онофрио, Пол Уокер, Кевин О. Ранкин, Лукас Хаас, Чи МакБрайд, Элайджа Вуд, DJ Куаллс, Пелл Джеймс, Норман Ридус
    О фильме: Три разные истории объединяет ломбард в захолустном городишке. Именно там пересекаются персонажи, казалось бы, разных сюжетных линий.
    Первая история — криминальная комедия о наркоманах-неудачниках, пытающихся ограбить своего дилера.
    Вторая — триллер, где неожиданная находка в ломбарде кольца пропавшей много лет назад жены приводит мужчину к маньяку, удерживающему в плену 21 девушку.
    Третья история — комедия о жизни двойника Элвиса, кочующего со своим шоу по ярмаркам американской провинции.-Релиз:
    Автор: sociolog_melvas
    Качество: BDRip (источник: / Blu-ray / 1080p)
    Формат: AVI
    Видео: 704x400 (1.76:1), 23,976 fps, XviD build 65 ~1939 kbps avg, 0.29 bit/pixel
    Аудио #1: 48 kHz, AC3 Dolby Digital, 3/2 (L,C,R,l,r) + LFE ch, ~384 kbps avg rus
    Аудио #2: 48 kHz, AC3 Dolby Digital, 3/2 (L,C,R,l,r) + LFE ch, ~448 kbps avg eng
    Размер: 2235.26 Mb (1/2 DVD)
    Скачать: Семпл-

    Кадры из фильма


    -

    Mi

    Формат : AVI
    Формат/Информация : Audio Video Interleave
    Профиль формата : OpenDML
    Размер файла : 2,18 Гбайт
    Продолжительность : 1 ч. 52 м.
    Общий поток : 2779 Кбит/сек
    Название фильма : Хроники ломбарда / Pawn Shop Chronicles (2013) BDRip
    Режиссёр : sociolog_melvas
    Жанр : криминал, комедия, боевик
    Программа кодирования : VirtualDubMod 1.5.10.2 (build 2540/release)
    Правообладатель : HQCLUB
    Примечание : 19.10.2015
    Видео
    Идентификатор : 0
    Формат : MPEG-4 Visual
    Профиль формата : Advanced Simple@L5
    Параметр BVOP формата : 1
    Параметр QPel формата : Нет
    Параметр GMC формата : Без точки перехода
    Параметр матрицы формата : Выборочная
    Идентификатор кодека : XVID
    Идентификатор кодека/Подсказка : XviD
    Продолжительность : 1 ч. 52 м.
    Битрейт : 1929 Кбит/сек
    Ширина : 704 пикселя
    Высота : 400 пикселей
    Соотношение сторон : 16:9
    Частота кадров : 23,976 кадра/сек
    Цветовое пространство : YUV
    Субдискретизация насыщенности : 4:2:0
    Битовая глубина : 8 бит
    Тип развёртки : Прогрессивная
    Метод сжатия : С потерями
    Бит/(Пиксели*Кадры) : 0.286
    Размер потока : 1,52 Гбайт (69%)
    Библиотека кодирования : XviD 65
    Аудио #1
    Идентификатор : 1
    Формат : AC-3
    Формат/Информация : Audio Coding 3
    Расширение режима : CM (complete main)
    Параметр Endianness формата : Big
    Идентификатор кодека : 2000
    Продолжительность : 1 ч. 52 м.
    Вид битрейта : Постоянный
    Битрейт : 384 Кбит/сек
    Каналы : 6 каналов
    Расположение каналов : Front: L C R, Side: L R, LFE
    Частота : 48,0 КГц
    Битовая глубина : 16 бит
    Метод сжатия : С потерями
    Размер потока : 309 Мбайт (14%)
    Выравнивание : Разделение по промежуткам
    Продолжительность промежутка : 42 мс. (1,00 видеокадр)
    Время предзагрузки промежутка : 500 мс.
    Аудио #2
    Идентификатор : 2
    Формат : AC-3
    Формат/Информация : Audio Coding 3
    Расширение режима : CM (complete main)
    Параметр Endianness формата : Big
    Идентификатор кодека : 2000
    Продолжительность : 1 ч. 52 м.
    Вид битрейта : Постоянный
    Битрейт : 448 Кбит/сек
    Каналы : 6 каналов
    Расположение каналов : Front: L C R, Side: L R, LFE
    Частота : 48,0 КГц
    Битовая глубина : 16 бит
    Метод сжатия : С потерями
    Размер потока : 360 Мбайт (16%)
    Выравнивание : Разделение по промежуткам
    Продолжительность промежутка : 42 мс. (1,00 видеокадр)
    Время предзагрузки промежутка : 500 мс.
    -
    Скачать .torrent

    Скачать торрент-файл бесплатно и на максимальной скорости!

    Как скачивать? · Что такое торрент? · Рейтинг и ограничения

    !ВНИМАНИЕ!
    Сайт не распространяет и не хранит электронные версии произведений, а занимается лишь лишь предоставлением доступа к создаваемому пользователями каталогу ссылок на торрент-файлы, которые содержат только списки хеш-сумм, убедительная просьба с жалобами обращаться напрямую к пользователю. Файлы для обмена на трекере предоставлены пользователями сайта, и администрация не несёт ответственности за их содержание. Просьба не заливать файлы, защищенные авторскими правами, а также файлы нелегального содержания!


    _________________
    [Профиль] [ЛС]
    Показать сообщения:    
    Ответить на тему

    Текущее время: Сегодня, в 07:53

    Часовой пояс: GMT + 2



    Вы не можете начинать темы
    Вы не можете отвечать на сообщения
    Вы не можете редактировать свои сообщения
    Вы не можете удалять свои сообщения
    Вы не можете голосовать в опросах
    Вы не можете прикреплять файлы к сообщениям
    Вы не можете скачивать файлы