BitTorrentTracker PerecTracker.org
BitTorrentTracker PerecTracker.org
    
Регистрация  ·  Вход
 
 · 
Забыли пароль?

  • Захар Беркут (Леонід Осика) [1972 р., драма, історія, DVDRip] Ukr

    Ответить на тему
     
    Автор Сообщение

    older

    Создавать темы 21-Окт-2015 06:56

           

    [Цитировать]

    Захар Беркут

    Рік випуску: 1972
    Країна: УРСР
    Кіностудія / кінокомпанія: ім. О.Довженка
    Жанр: драма, історія
    Тривалість: 01:32:37
    Субтитри: відсутні
    Оригінальна аудіодоріжка: українська-Режисер: Леонід Осика
    Сценарій: Дмитро Павличко, Іван Франко-Світова прем'єра: 30 серпня 1973
    Обмеження за віком: нема- -Актори: Іван Миколайчук, Василь Симчич, Іван Гаврилюк, Антоніна Лефтій, Костянтин Степанков, Борислав Брондуков, Болот Бейшеналієв, Федір Панасенко, Володимир Прокоф’єв-Сюжет: За однойменною повістю Івана Франка; про подвиг невеличкої карпатської громади, яка вступила у двобій з татаро-монгольськими завойовниками.
    Нагороди: 1972 – приз і премія за відтворення на екрані традицій народного героїчного епосу – ВКФ у Тбілісі. 1971 – Головний приз, спеціальний диплом Валерію Квасу за оригінальну операторську роботу – Кінофестиваль "Молодь – молодим" (Дніпропетровськ).-Формат: AVI
    Якість: DVDRip
    Відео кодек: XviD
    Відео: 720x336 (5:4), 1997 kbps, 25,000 fps, 0.330 bit/pixel
    Аудіо: 48,0 kHz, MPEG Layer 2, 2 ch, 224.00 kbps-Джерело:

    MediaInfo

    Общее
    Полное имя                               : \Zahar Berkut (1971) [ukr] DVDRip [Hurtom] by vosvoboda.avi
    Формат                                   : AVI
    Формат/Информация                        : Audio Video Interleave
    Размер файла                             : 1,44 Гбайт
    Продолжительность                        : 1 ч. 32 м.
    Общий поток                              : 2231 Кбит/сек
    Программа кодирования                    : VirtualDubModRus 1.5.10.2 (build 2542/release)
    Библиотека кодирования                   : VirtualDubMod build 2542/release
    Видео
    Идентификатор                            : 0
    Формат                                   : MPEG-4 Visual
    Профиль формата                          : Advanced Simple@L5
    Параметр BVOP формата                    : 2
    Параметр QPel формата                    : Нет
    Параметр GMC формата                     : Без точки перехода
    Параметр матрицы формата                 : Default (H.263)
    Режим смешивания                         : Сжатый битовый поток
    Идентификатор кодека                     : XVID
    Идентификатор кодека/Подсказка           : XviD
    Продолжительность                        : 1 ч. 32 м.
    Битрейт                                  : 1997 Кбит/сек
    Ширина                                   : 720 пикселей
    Высота                                   : 336 пикселей
    Соотношение сторон                       : 5:4
    Соотношение сторон в оригинале           : 2,143
    Частота кадров                           : 25,000 кадров/сек
    Цветовое пространство                    : YUV
    Субдискретизация насыщенности            : 4:2:0
    Битовая глубина                          : 8 бит
    Тип развёртки                            : Прогрессивная
    Метод сжатия                             : С потерями
    Бит/(Пиксели*Кадры)                      : 0.330
    Размер потока                            : 1,29 Гбайт (90%)
    Библиотека кодирования                   : XviD 1.2.1 (UTC 2008-12-04)
    Аудио
    Идентификатор                            : 1
    Формат                                   : MPEG Audio
    Версия формата                           : Version 1
    Профиль формата                          : Layer 2
    Идентификатор кодека                     : 50
    Продолжительность                        : 1 ч. 32 м.
    Вид битрейта                             : Постоянный
    Битрейт                                  : 224 Кбит/сек
    Каналы                                   : 2 канала
    Частота                                  : 48,0 КГц
    Метод сжатия                             : С потерями
    Размер потока                            : 148 Мбайт (10%)
    Выравнивание                             : Соединение по промежуткам
    Продолжительность промежутка             : 40  мс. (1,00 видеокадр)
    Время предзагрузки промежутка            : 504  мс.

    Скріншоти

    Скачать .torrent

    Скачать торрент-файл бесплатно и на максимальной скорости!

    Как скачивать? · Что такое торрент? · Рейтинг и ограничения

    !ВНИМАНИЕ!
    Сайт не распространяет и не хранит электронные версии произведений, а занимается лишь лишь предоставлением доступа к создаваемому пользователями каталогу ссылок на торрент-файлы, которые содержат только списки хеш-сумм, убедительная просьба с жалобами обращаться напрямую к пользователю. Файлы для обмена на трекере предоставлены пользователями сайта, и администрация не несёт ответственности за их содержание. Просьба не заливать файлы, защищенные авторскими правами, а также файлы нелегального содержания!


    _________________
    [Профиль] [ЛС]
    Показать сообщения:    
    Ответить на тему

    Текущее время: Сегодня, в 22:29

    Часовой пояс: GMT + 2



    Вы не можете начинать темы
    Вы не можете отвечать на сообщения
    Вы не можете редактировать свои сообщения
    Вы не можете удалять свои сообщения
    Вы не можете голосовать в опросах
    Вы не можете прикреплять файлы к сообщениям
    Вы не можете скачивать файлы