BitTorrentTracker PerecTracker.org
BitTorrentTracker PerecTracker.org
    
Регистрация  ·  Вход
 
 · 
Забыли пароль?

  • Помста / Revenge / Сезон 3 (1-22 серії з 22) (Кеннет Фінк, Боббі Рот, Метт Ерл Біслі) [2013 р., трилер, драма, мелодрама, детектив, WEB-DLRip] MVO (1+1) Ukr + Original

    Ответить на тему
     
    Автор Сообщение

    older

    Создавать темы 21-Окт-2015 04:30

           

    [Цитировать]

    Помста / Revenge / Сезон 3

    Рік випуску: 2013
    Країна: США
    Кіностудія / кінокомпанія: The Page Fright Company, Mike Kelley Productions, Temple Hill Productions, ABC Studios / ABC
    Жанр: трилер, драма, мелодрама, детектив
    Тривалість: 1 серія: ~ 00:43:00 (цілком серій: 10/22)
    Субтитри: відсутні
    Переклад: багатоголосий, закадровий (професійний) - студія: 1+1
    Оригінальна аудіодоріжка: українська, англійська-Режисер: Кеннет Фінк, Боббі Рот, Метт Ерл Біслі
    Продюсер: Тед Бабкок, Марті Бауен, Вік Годфрі
    Сценарій: Майк Келлі, Тед Салліван, Джо Фаціо-Світова прем'єра: 21 вересня 2011
    Обмеження за віком: нема- -Актори: Меделін Стоу, Емілі ВанКамп, Габріель Менн, Генрі Черний, Ешлі Мадекве, Нік Вешлер, Джошуа Боумен, Коннор Паоло, Кріста Б. Аллен-Сюжет: Ласкаво просимо до Хемптонса! Тут, на розкішному курорті, проводять літо сильні світу цього. Емілі Торн – новенька в Хемптонсі. Вона познайомилася з деякими впливовими сусідами, завела кілька друзів і, здавалося б, легко вписалася у світ світських раутів на узбережжі. Але є дещо дивне в тому, що молода дівчина живе в багатому місті сама по собі. Насправді, Емілі не зовсім новачок у цьому районі. Вона вже жила тут у дитинстві, але тоді її звали інакше.
    Світ дівчинки був зруйнований, коли її батька засудили до довічного ув’язнення за злочин, якого він не скоював.
    Емілі повернулася, щоб відновити справедливість найкращим для неї способом – помстою. У неї є план, засоби для його втілення в життя й величезне бажання поквитатися з ворогами своєї сім’ї.
    Серіал знятий за мотивами знаменитого роману Олександра Дюма «Граф Монте-Крісто».-Формат: AVI
    Якість: WEB-DLRip
    Відео кодек: XviD
    Відео: 720x400 (16:9), 1500 kbps, 23.976 fps, 0.217 bit/pixel
    Аудіо 1: AC3, 48 kHz, 2 ch, 192 kbps - студія: 1+1
    Аудіо 2: MPEG Layer 3, 48 kHz, 2 ch, 128.00 kbps - Original-Джерело: &

    MediaInfo

    Общее
    Полное имя                               : \Revenge - Season 3 (2013-2014) WEB-DLRip [Ukr, Eng]\Revenge - S03E01 (2013-2014) WEB-DLRip [Ukr, Eng].avi
    Формат                                   : AVI
    Формат/Информация                        : Audio Video Interleave
    Размер файла                             : 566 Мбайт
    Продолжительность                        : 43 м.
    Общий поток                              : 1834 Кбит/сек
    Программа кодирования                    : VirtualDubModUkr 1.5.10.2 (build 2542/release)
    Библиотека кодирования                   : VirtualDubMod build 2542/release
    Видео
    Идентификатор                            : 0
    Формат                                   : MPEG-4 Visual
    Профиль формата                          : Advanced Simple@L5
    Параметр BVOP формата                    : 1
    Параметр QPel формата                    : Нет
    Параметр GMC формата                     : Без точки перехода
    Параметр матрицы формата                 : Выборочная
    Идентификатор кодека                     : XVID
    Идентификатор кодека/Подсказка           : XviD
    Продолжительность                        : 43 м.
    Битрейт                                  : 1500 Кбит/сек
    Ширина                                   : 720 пикселей
    Высота                                   : 400 пикселей
    Соотношение сторон                       : 16:9
    Частота кадров                           : 23,976 кадра/сек
    Цветовое пространство                    : YUV
    Субдискретизация насыщенности            : 4:2:0
    Битовая глубина                          : 8 бит
    Тип развёртки                            : Прогрессивная
    Метод сжатия                             : С потерями
    Бит/(Пиксели*Кадры)                      : 0.217
    Размер потока                            : 463 Мбайт (82%)
    Библиотека кодирования                   : XviD 64
    Аудио #1
    Идентификатор                            : 1
    Формат                                   : AC-3
    Формат/Информация                        : Audio Coding 3
    Расширение режима                        : CM (complete main)
    Параметр Endianness формата              : Big
    Идентификатор кодека                     : 2000
    Продолжительность                        : 43 м.
    Вид битрейта                             : Постоянный
    Битрейт                                  : 192 Кбит/сек
    Каналы                                   : 2 канала
    Расположение каналов                     : Front: L R
    Частота                                  : 48,0 КГц
    Битовая глубина                          : 16 бит
    Метод сжатия                             : С потерями
    Размер потока                            : 59,2 Мбайт (10%)
    Выравнивание                             : Разделение по промежуткам
    Продолжительность промежутка             : 42  мс. (1,00 видеокадр)
    Время предзагрузки промежутка            : 500  мс.
    Аудио #2
    Идентификатор                            : 2
    Формат                                   : MPEG Audio
    Версия формата                           : Version 1
    Профиль формата                          : Layer 3
    Идентификатор кодека                     : 55
    Идентификатор кодека/Подсказка           : MP3
    Продолжительность                        : 43 м.
    Вид битрейта                             : Постоянный
    Битрейт                                  : 128 Кбит/сек
    Каналы                                   : 2 канала
    Частота                                  : 48,0 КГц
    Метод сжатия                             : С потерями
    Размер потока                            : 39,5 Мбайт (7%)
    Выравнивание                             : Соединение по промежуткам
    Продолжительность промежутка             : 42  мс. (1,00 видеокадр)
    Время предзагрузки промежутка            : 504  мс.
    Библиотека кодирования                   : LAME3.99
    Настройки программы                      : -m s -V 4 -q 2 -lowpass 17 -b 128

    Скріншоти

    Перелік серій

    01. Fear
    02. Sin
    03. Confession
    04. Mercy
    05. Control
    06. Dissolution
    07. Resurgence
    08. Secrecy
    09. Surrender
    10. Exodus
    11. Homecoming
    12. Endurance
    13. Hatred
    14. Payback
    15. Struggle
    16. Disgrace
    17. Addiction
    18. Blood
    19. Allegiance
    20. Revolution
    21. Impetus
    22. Execution

    Оновлення роздачі

    При кожному додаванні створюється новий торрент. Щоб почати закачування нової серії, користувачам необхідно зробити наступне:
    1. Зупинити скачування.
    2. Видалити старий торрент у себе з клієнта (старі серії видаляти не треба).
    3. Завантажити новий торрент і запустити його у себе в клієнті замість старого, при цьому вказати клієнтові шлях в стару папку куди і має відбуватися скачування нових серій.
    Ваш клієнт при цьому повинен зробити хешування (перевірку) старої папки (якщо не робить сам - допоможіть йому зробити це), і буде докачувати тільки ті серії яких у вас ще немає. Старі серії при цьому не видаляються, а продовжують роздаватись!
    Якщо ви вже видалили старі серії, то запобігти повторну закачку старих серій можна, віджавши галочку у відповідних місцях при запуску нового торрента.
    20.01.16. Роздача оновлена!
    Сезон представлений повністю.
    Перекачати торрент файл!
    Скачать .torrent

    Скачать торрент-файл бесплатно и на максимальной скорости!

    Как скачивать? · Что такое торрент? · Рейтинг и ограничения

    !ВНИМАНИЕ!
    Сайт не распространяет и не хранит электронные версии произведений, а занимается лишь лишь предоставлением доступа к создаваемому пользователями каталогу ссылок на торрент-файлы, которые содержат только списки хеш-сумм, убедительная просьба с жалобами обращаться напрямую к пользователю. Файлы для обмена на трекере предоставлены пользователями сайта, и администрация не несёт ответственности за их содержание. Просьба не заливать файлы, защищенные авторскими правами, а также файлы нелегального содержания!


    _________________


    Последний раз редактировалось: older (2016-01-20 09:03), всего редактировалось 7 раз(а)
    [Профиль] [ЛС]

    older ®

    Создавать темы 02-Ноя-2015 11:11 (спустя 12 дней)

           

    [Цитировать]

    02.11.15. Роздача оновлена!
    Додані 11-13 серії.
    Перекачати торрент файл!

    _________________
    [Профиль] [ЛС]

    older ®

    Создавать темы 20-Ноя-2015 06:41 (спустя 17 дней)

           

    [Цитировать]

    20.11.15. Роздача оновлена!
    Додані 15-22 серії.
    Перекачати торрент файл!

    _________________
    [Профиль] [ЛС]

    older ®

    Создавать темы 20-Янв-2016 08:59 (спустя 2 месяца)

           

    [Цитировать]

    20.01.16. Роздача оновлена!
    Сезон представлений повністю.
    Перекачати торрент файл!

    _________________
    [Профиль] [ЛС]
    Показать сообщения:    
    Ответить на тему

    Текущее время: Сегодня, в 19:49

    Часовой пояс: GMT + 2



    Вы не можете начинать темы
    Вы не можете отвечать на сообщения
    Вы не можете редактировать свои сообщения
    Вы не можете удалять свои сообщения
    Вы не можете голосовать в опросах
    Вы не можете прикреплять файлы к сообщениям
    Вы не можете скачивать файлы