BitTorrentTracker PerecTracker.org
BitTorrentTracker PerecTracker.org
    
Регистрация  ·  Вход
 
 · 
Забыли пароль?

  • Гори димлять (Борис Небієрідзе) [1989 р., драма, історія, TVRip] Ukr

    Ответить на тему
     
    Автор Сообщение

    older

    Создавать темы 20-Окт-2015 21:47

           

    [Цитировать]

    Гори димлять

    Рік випуску: 1989
    Країна: УРСР
    Кіностудія / кінокомпанія: Укртелефільм
    Жанр: драма, історія
    Тривалість: 02:25:00 (2 серії)
    Субтитри: відсутні
    Оригінальна аудіодоріжка: українська-Режисер: Борис Небієрідзе
    Сценарій: Роман Фуртак--Актори: Іван Гаврилюк, Ольга Битюкова, Лесь Сердюк, Наталія Сумська, П. Бенюк, Ю. Дубровін, Т. Денисенко, І. Крикунов, Л.Белогурова, І.Дмитрієв, Лев Дуров, К. Степанков-Сюжет: За мотивами повісті Ярослава Галана. Західна Україна, кордон з Румунією. Іван Семенюк ( І. Гаврилюк) , місцевий "Робін-Гуд" одружений з Марічкою (Н.Сумська), закохується в молоду дружину коменданта - Ольгу (О.Битюкова). Заборонене кохання...Зрада... Поступово вони розуміють, що не можуть один без одного, вирішують тікати але Марічка видасть їхні стосунки коменданту ...-Формат: AVI
    Якість: TVRip
    Відео кодек: DivX 5
    Відео: 512х384 (4:3), 1166 kbps, 25,000 fps, 0.237 bit/pixel
    Аудіо: 44,1 kHz, MPEG Layer 3, 2 ch, 128.00 kbps-Джерело:

    MediaInfo

    Общее
    Полное имя                               : \Gory dymlyat 1989\Hory.dymlat.(1989).1.z.2.TVRip.by_boyko.avi
    Формат                                   : AVI
    Формат/Информация                        : Audio Video Interleave
    Размер файла                             : 700 Мбайт
    Продолжительность                        : 1 ч. 16 м.
    Режим общего битрейта                    : Переменный
    Общий поток                              : 1280 Кбит/сек
    Видео
    Идентификатор                            : 0
    Формат                                   : MPEG-4 Visual
    Параметр BVOP формата                    : 1
    Параметр QPel формата                    : Нет
    Параметр GMC формата                     : Без точки перехода
    Параметр матрицы формата                 : Default (H.263)
    Режим смешивания                         : Сжатый битовый поток
    Идентификатор кодека                     : DX50
    Идентификатор кодека/Подсказка           : DivX 5
    Продолжительность                        : 1 ч. 16 м.
    Битрейт                                  : 1166 Кбит/сек
    Ширина                                   : 512 пикселей
    Высота                                   : 384 пикселя
    Соотношение сторон                       : 4:3
    Частота кадров                           : 25,000 кадров/сек
    Цветовое пространство                    : YUV
    Субдискретизация насыщенности            : 4:2:0
    Битовая глубина                          : 8 бит
    Тип развёртки                            : Прогрессивная
    Метод сжатия                             : С потерями
    Бит/(Пиксели*Кадры)                      : 0.237
    Размер потока                            : 638 Мбайт (91%)
    Заголовок                                : Video
    Библиотека кодирования                   : DivX 5.2.1 Alpha (UTC 2004-09-08)
    Аудио
    Идентификатор                            : 1
    Формат                                   : MPEG Audio
    Версия формата                           : Version 1
    Профиль формата                          : Layer 3
    Режим                                    : Joint stereo
    Расширение режима                        : MS Stereo
    Идентификатор кодека                     : 55
    Идентификатор кодека/Подсказка           : MP3
    Продолжительность                        : 1 ч. 16 м.
    Вид битрейта                             : Переменный
    Битрейт                                  : 128 Кбит/сек
    Каналы                                   : 2 канала
    Частота                                  : 44,1 КГц
    Метод сжатия                             : С потерями
    Размер потока                            : 55,4 Мбайт (8%)
    Выравнивание                             : Соединение по промежуткам
    Продолжительность промежутка             : 26  мс. (0,65 видеокадр)
    Время предзагрузки промежутка            : 358  мс.
    Заголовок                                : Audio

    Скріншоти

    Скачать .torrent

    Скачать торрент-файл бесплатно и на максимальной скорости!

    Как скачивать? · Что такое торрент? · Рейтинг и ограничения

    !ВНИМАНИЕ!
    Сайт не распространяет и не хранит электронные версии произведений, а занимается лишь лишь предоставлением доступа к создаваемому пользователями каталогу ссылок на торрент-файлы, которые содержат только списки хеш-сумм, убедительная просьба с жалобами обращаться напрямую к пользователю. Файлы для обмена на трекере предоставлены пользователями сайта, и администрация не несёт ответственности за их содержание. Просьба не заливать файлы, защищенные авторскими правами, а также файлы нелегального содержания!


    _________________
    [Профиль] [ЛС]

    older ®

    Создавать темы 21-Окт-2015 04:56 (спустя 7 часов)

           

    [Цитировать]

    У кого є в кращій якості, поділіться. Або, скажіть де взяти.

    _________________
    [Профиль] [ЛС]
    Показать сообщения:    
    Ответить на тему

    Текущее время: Сегодня, в 18:47

    Часовой пояс: GMT + 2



    Вы не можете начинать темы
    Вы не можете отвечать на сообщения
    Вы не можете редактировать свои сообщения
    Вы не можете удалять свои сообщения
    Вы не можете голосовать в опросах
    Вы не можете прикреплять файлы к сообщениям
    Вы не можете скачивать файлы