BitTorrentTracker PerecTracker.org
BitTorrentTracker PerecTracker.org
    
Регистрация  ·  Вход
 
 · 
Забыли пароль?

  • Поза межами болю (Ярослав Лупій) [1989 р., драма, військовий, історичний, TVRip] Ukr

    Ответить на тему
     
    Автор Сообщение

    older

    Создавать темы 20-Окт-2015 20:51

           

    [Цитировать]

    Поза межами болю

    Рік випуску: 1989
    Країна: УРСР
    Кіностудія / кінокомпанія: Укртелефільм
    Жанр: драма, військовий, історичний
    Тривалість: 01:26:01
    Субтитри: відсутні
    Оригінальна аудіодоріжка: українська-Режисер: Ярослав Лупій
    Сценарій: Ярослав Лупій--Актори: В.Троцюк, Г.Пірцхалава, М.Горносталь, М.Олійник, К.Степанков, В.Левицький, П.Микитюк-Сюжет: Фільм знято за мотивами автобіографічної повісті Осипа Турянського. У зимку 1915 року «під ударом німецько-австрійського війська серби покинули свій край і забрали із собою всіх бранців, 60 000 чоловік, і погнали їх на албанський “шлях смерті”. В албанських горах, нетрях від голоду, холоду й душевного болю загинуло 45 000 бранців». Убивши конвоїра, вісім полонених товаришів відійшли від «шляху смерті» й зупинилися над проваллям. Понад десять днів вони нічого не їли, тому сил іти далі не було. Їм залишалося сидіти серед скель, окутаних морозом, і чекати на якесь чудо. Щоб уникнути голодної смерті, потрібно було вдатися до канібалізму, а щоб не замерзнути – стягнути одяг із товариша й розпалити вогонь. Ці жахливі думки чорним гайворонням кружляли над свідомістю солдатів. У присмерках безнадії, відчаю й нестерпного болю розігрувалася трагедія людських душ і тіл.-Формат: AVI
    Якість: TVRip
    Відео кодек: XviD
    Відео: 720x464 (16:10), 1698 kbps, 25,000 fps, 0.203 bit/pixel
    Аудіо: 48,0 kHz, MPEG Layer 3, 2 ch, 128.00 kbps-Джерело:

    MediaInfo

    Общее
    Полное имя                               : \Поза межами болю.1989.XviD.TVRip.avi
    Формат                                   : AVI
    Формат/Информация                        : Audio Video Interleave
    Размер файла                             : 1,10 Гбайт
    Продолжительность                        : 1 ч. 26 м.
    Общий поток                              : 1836 Кбит/сек
    Программа кодирования                    : VirtualDubMod 1.5.10.2 (build 2540/release)
    Библиотека кодирования                   : VirtualDub build 28292/release
    Видео
    Идентификатор                            : 0
    Формат                                   : MPEG-4 Visual
    Профиль формата                          : Advanced Simple@L5
    Параметр BVOP формата                    : 3
    Параметр QPel формата                    : Да
    Параметр GMC формата                     : 3 точки перехода
    Параметр матрицы формата                 : Default (H.263)
    Идентификатор кодека                     : XVID
    Идентификатор кодека/Подсказка           : XviD
    Продолжительность                        : 1 ч. 26 м.
    Битрейт                                  : 1698 Кбит/сек
    Ширина                                   : 720 пикселей
    Высота                                   : 464 пикселя
    Соотношение сторон                       : 16:10
    Частота кадров                           : 25,000 кадров/сек
    Цветовое пространство                    : YUV
    Субдискретизация насыщенности            : 4:2:0
    Битовая глубина                          : 8 бит
    Тип развёртки                            : Прогрессивная
    Метод сжатия                             : С потерями
    Бит/(Пиксели*Кадры)                      : 0.203
    Размер потока                            : 1,02 Гбайт (92%)
    Библиотека кодирования                   : XviD 1.2.0.dev47 (UTC 2006-11-01)
    Аудио
    Идентификатор                            : 1
    Формат                                   : MPEG Audio
    Версия формата                           : Version 1
    Профиль формата                          : Layer 3
    Идентификатор кодека                     : 55
    Идентификатор кодека/Подсказка           : MP3
    Продолжительность                        : 1 ч. 26 м.
    Вид битрейта                             : Постоянный
    Битрейт                                  : 128 Кбит/сек
    Каналы                                   : 2 канала
    Частота                                  : 48,0 КГц
    Метод сжатия                             : С потерями
    Размер потока                            : 78,8 Мбайт (7%)
    Выравнивание                             : Соединение по промежуткам
    Продолжительность промежутка             : 40  мс. (1,00 видеокадр)
    Время предзагрузки промежутка            : 504  мс.

    Скріншоти

    Скачать .torrent

    Скачать торрент-файл бесплатно и на максимальной скорости!

    Как скачивать? · Что такое торрент? · Рейтинг и ограничения

    !ВНИМАНИЕ!
    Сайт не распространяет и не хранит электронные версии произведений, а занимается лишь лишь предоставлением доступа к создаваемому пользователями каталогу ссылок на торрент-файлы, которые содержат только списки хеш-сумм, убедительная просьба с жалобами обращаться напрямую к пользователю. Файлы для обмена на трекере предоставлены пользователями сайта, и администрация не несёт ответственности за их содержание. Просьба не заливать файлы, защищенные авторскими правами, а также файлы нелегального содержания!


    _________________
    [Профиль] [ЛС]

    older ®

    Создавать темы 21-Окт-2015 04:57 (спустя 8 часов)

           

    [Цитировать]

    У кого є в кращій якості, поділіться. Або, скажіть де взяти.

    _________________
    [Профиль] [ЛС]
    Показать сообщения:    
    Ответить на тему

    Текущее время: Сегодня, в 16:36

    Часовой пояс: GMT + 2



    Вы не можете начинать темы
    Вы не можете отвечать на сообщения
    Вы не можете редактировать свои сообщения
    Вы не можете удалять свои сообщения
    Вы не можете голосовать в опросах
    Вы не можете прикреплять файлы к сообщениям
    Вы не можете скачивать файлы