BitTorrentTracker PerecTracker.org
BitTorrentTracker PerecTracker.org
    
Регистрация  ·  Вход
 
 · 
Забыли пароль?

  • Камінний Хрест (Леонід Осика) [1968 р., драма, DVDRip-AVC] Ukr

    Ответить на тему
     
    Автор Сообщение

    older

    Создавать темы 20-Окт-2015 09:42

           

    [Цитировать]

    Камінний Хрест

    Рік випуску: 1968
    Країна: УРСР
    Кіностудія / кінокомпанія: Кіностудія ім. О. Довженка
    Жанр: драма
    Тривалість: 01:16:37
    Субтитри: відсутні
    Оригінальна аудіодоріжка: українська-Режисер: Леонід Осика
    Сценарій: Іван Драч- -Актори: Данило Ільченко, Борислав Брондуков, Костянтин Степанков, Василь Симчич, Катерина Матейко, Борис Савченко, Іван Миколайчук, Антоніна Лефтій, Олексій Атаманюк-Сюжет: За мотивами новел Василя Стефаника "Камінний хрест" та "Злодій"; про трагічну долю галицького селянина Івана Дідуха, який вимушений на старості літ покинути свою вбогу землю і вирушити з дітьми на чужину в пошуках примарного щастя.-Формат: MKV
    Якість: DVDRip-AVC
    Відео кодек: H.264
    Відео: 720x540 (4:3), 2000 kbps, 25,000 fps, 0.206 bit/pixel
    Аудіо: AC3, 48 kHz, 2 ch, 224 kbps-Джерело:

    MediaInfo

    Общее
    Уникальный идентификатор                 : 216779874576190879484131157206103544116 (0xA3164901784E1512AE262CEC95F8D134)
    Полное имя                               : \Камінний Хрест.1968.mkv
    Формат                                   : Matroska
    Версия формата                           : Version 1
    Размер файла                             : 1,19 Гбайт
    Продолжительность                        : 1 ч. 16 м.
    Общий поток                              : 2230 Кбит/сек
    Название фильма                          : Kaminnyj_Hrest
    Дата кодирования                         : UTC 2015-02-09 06:02:30
    Программа кодирования                    : mkvmerge v2.4.1 ('Use Me') built on Dec  5 2008 18:30:05
    Библиотека кодирования                   : libebml v0.7.7 + libmatroska v0.8.1
    Видео
    Идентификатор                            : 1
    Формат                                   : AVC
    Формат/Информация                        : Advanced Video Codec
    Профиль формата                          : Main@L3.0
    Параметр CABAC формата                   : Да
    Параметр ReFrames формата                : 2 кадра
    Идентификатор кодека                     : V_MPEG4/ISO/AVC
    Продолжительность                        : 1 ч. 16 м.
    Битрейт                                  : 2000 Кбит/сек
    Ширина                                   : 720 пикселей
    Высота                                   : 540 пикселей
    Соотношение сторон                       : 4:3
    Режим частоты кадров                     : Постоянный
    Частота кадров                           : 25,000 кадров/сек
    Цветовое пространство                    : YUV
    Субдискретизация насыщенности            : 4:2:0
    Битовая глубина                          : 8 бит
    Тип развёртки                            : Прогрессивная
    Бит/(Пиксели*Кадры)                      : 0.206
    Размер потока                            : 1,05 Гбайт (88%)
    Библиотека кодирования                   : x264 core 77
    Настройки программы                      : cabac=1 / ref=1 / deblock=1:0:0 / analyse=0x1:0x11 / me=hex / subme=5 / psy=1 / psy_rd=0.0:0.0 / mixed_ref=0 / me_range=16 / chroma_me=1 / trellis=1 / 8x8dct=0 / cqm=0 / deadzone=21,11 / chroma_qp_offset=0 / threads=2 / nr=0 / decimate=1 / mbaff=0 / constrained_intra=0 / bframes=2 / b_pyramid=0 / b_adapt=1 / b_bias=0 / direct=1 / wpredb=0 / keyint=12 / keyint_min=7 / scenecut=40 / rc_lookahead=12 / rc=abr / mbtree=1 / bitrate=2000 / ratetol=1.0 / qcomp=0.60 / qpmin=10 / qpmax=51 / qpstep=4 / ip_ratio=1.41 / aq=1:1.00
    Язык                                     : Ukrainian
    Default                                  : Да
    Forced                                   : Нет
    Аудио
    Идентификатор                            : 2
    Формат                                   : AC-3
    Формат/Информация                        : Audio Coding 3
    Расширение режима                        : CM (complete main)
    Параметр Endianness формата              : Big
    Идентификатор кодека                     : A_AC3
    Продолжительность                        : 1 ч. 16 м.
    Вид битрейта                             : Постоянный
    Битрейт                                  : 224 Кбит/сек
    Каналы                                   : 2 канала
    Расположение каналов                     : Front: L R
    Частота                                  : 48,0 КГц
    Битовая глубина                          : 16 бит
    Метод сжатия                             : С потерями
    Размер потока                            : 123 Мбайт (10%)
    Язык                                     : Ukrainian
    Default                                  : Да
    Forced                                   : Нет

    Скріншоти

    Скачать .torrent

    Скачать торрент-файл бесплатно и на максимальной скорости!

    Как скачивать? · Что такое торрент? · Рейтинг и ограничения

    !ВНИМАНИЕ!
    Сайт не распространяет и не хранит электронные версии произведений, а занимается лишь лишь предоставлением доступа к создаваемому пользователями каталогу ссылок на торрент-файлы, которые содержат только списки хеш-сумм, убедительная просьба с жалобами обращаться напрямую к пользователю. Файлы для обмена на трекере предоставлены пользователями сайта, и администрация не несёт ответственности за их содержание. Просьба не заливать файлы, защищенные авторскими правами, а также файлы нелегального содержания!


    _________________
    [Профиль] [ЛС]
    Показать сообщения:    
    Ответить на тему

    Текущее время: Сегодня, в 10:44

    Часовой пояс: GMT + 2



    Вы не можете начинать темы
    Вы не можете отвечать на сообщения
    Вы не можете редактировать свои сообщения
    Вы не можете удалять свои сообщения
    Вы не можете голосовать в опросах
    Вы не можете прикреплять файлы к сообщениям
    Вы не можете скачивать файлы