BitTorrentTracker PerecTracker.org
BitTorrentTracker PerecTracker.org
    
Регистрация  ·  Вход
 
 · 
Забыли пароль?

  • Штрафной Удар (Вениамин Дорман) [1963, комедия, DVDRip-AVC]

    Ответить на тему
     
    Автор Сообщение

    Light

    Создавать темы 20-Окт-2015 08:30

           

    [Цитировать]

    Штрафной удар-Жанр: комедия
    Год выпуска: 1963
    Продолжительность: 01:27:22-Режиссёр: Вениамин Дорман-В ролях:
    Михаил Пуговкин, Владимир Трещалов, Лилиана Алешникова, Лариса Лужина, Игорь Пушкарев, Георгий Тусузов, Елена Понсова, Владимир Высоцкий , Алексей Бахарь, Николай Сморчков
    Описание:
    Руководитель животноводческого комплекса получает задание поднять авторитет спорта на селе. Решив добиться быстрого успеха, он приглашает в команду мастеров спорта. Дорожное знакомство с корреспонденткой местной газеты приводит к тому, что скандала теперь не избежать...-Сэмпл | -Качество видео: DVDRip-AVC / благодарю geinz за исходный материал.
    Формат видео: MKV
    Видео: x264 (High@L4.1); 680@725x568, Display aspect ratio 1.276:1, 25.000 fps, 2124 Kbps
    Аудио: Оригинал: AC-3; 16 bits 48 Khz; 2.0ch 256 Kbps; CBR
    MediaInfo

    -

    x264 log

    avs [info]: 680x568p 16:15 @ 25/1 fps (cfr)
    x264 [info]: using SAR=16/15
    x264 [info]: using cpu capabilities: MMX2 SSE2Fast SSSE3 SSE4.2
    x264 [info]: profile High, level 4.1
    x264 [info]: frame I:727 Avg QP:18.19 size: 62239
    x264 [info]: frame P:29382 Avg QP:20.98 size: 24420
    x264 [info]: frame B:100943 Avg QP:23.65 size: 6232
    x264 [info]: consecutive B-frames: 2.0% 3.0% 7.1% 21.7% 22.6% 40.2% 3.0% 0.5%
    x264 [info]: mb I I16..4: 4.8% 73.0% 22.2%
    x264 [info]: mb P I16..4: 0.1% 8.4% 1.9% P16..4: 34.1% 39.9% 13.1% 2.1% 0.2% skip: 0.3%
    x264 [info]: mb B I16..4: 0.0% 0.8% 0.2% B16..8: 36.9% 22.0% 3.4% direct: 5.2% skip:31.5% L0:33.6% L1:43.2% BI:23.3%
    x264 [info]: 8x8 transform intra:79.2% inter:56.2%
    x264 [info]: direct mvs spatial:99.7% temporal:0.3%
    x264 [info]: coded y,uvDC,uvAC intra: 96.4% 69.0% 29.2% inter: 29.3% 17.0% 2.3%
    x264 [info]: i16 v,h,dc,p: 11% 17% 12% 60%
    x264 [info]: i8 v,h,dc,ddl,ddr,vr,hd,vl,hu: 15% 11% 5% 9% 13% 13% 12% 11% 11%
    x264 [info]: i4 v,h,dc,ddl,ddr,vr,hd,vl,hu: 14% 12% 3% 8% 14% 14% 13% 11% 12%
    x264 [info]: i8c dc,h,v,p: 28% 30% 22% 20%
    x264 [info]: Weighted P-Frames: Y:21.1% UV:6.1%
    x264 [info]: ref P L0: 41.6% 13.6% 16.7% 5.7% 4.9% 3.3% 3.3% 1.6% 1.7% 1.3% 1.4% 1.1% 1.1% 0.9% 1.0% 0.7%
    x264 [info]: ref B L0: 89.7% 6.0% 1.2% 0.8% 0.5% 0.4% 0.3% 0.2% 0.2% 0.2% 0.1% 0.1% 0.1% 0.1% 0.1%
    x264 [info]: ref B L1: 98.1% 1.9%
    x264 [info]: kb/s:2124.15
    x264 [total]: encoded 131052 frames, 12.19 fps, 2124.16 kb/s
    -General
    Unique ID : 204906561442001400542290761199983993547 (0x9A279178B7C151FB9D83D9DE083B22CB)
    Complete name : Штрафной удар.1963.mkv
    Format : Matroska
    Format version : Version 2
    File size : 1.45 GiB
    Duration : 1h 27mn
    Overall bit rate : 2 382 Kbps
    Movie name : «Штрафной удар»
    Encoded date : UTC 2015-10-18 19:07:53
    Writing application : mkvmerge v5.8.0 ('No Sleep / Pillow') built on Sep 2 2012 15:37:04
    Writing library : libebml v1.2.3 + libmatroska v1.3.0
    Comment : DVDRip-AVC
    Originally released : October 17th 2015
    Encoded by : george$t®
    Video
    ID : 1
    Format : AVC
    Format/Info : Advanced Video Codec
    Format profile : High@L4.1
    Format settings, CABAC : Yes
    Format settings, ReFrames : 16 frames
    Codec ID : V_MPEG4/ISO/AVC
    Duration : 1h 27mn
    Bit rate : 2 124 Kbps
    Width : 680 pixels
    Height : 568 pixels
    Display aspect ratio : 1.276
    Original display aspect rat : 1.277
    Frame rate mode : Constant
    Frame rate : 25.000 fps
    Color space : YUV
    Chroma subsampling : 4:2:0
    Bit depth : 8 bits
    Scan type : Progressive
    Bits/(Pixel*Frame) : 0.220
    Stream size : 1.27 GiB (87%)
    Title : Штрафной удар.1963.mkv
    Writing library : x264 core 148 r2579kMod 73ae2d1
    Encoding settings : cabac=1 / ref=16 / deblock=1:-2:-1 / analyse=0x3:0x133 / me=umh / subme=11 / psy=1 / fade_compensate=0.00 / psy_rd=0.95:0.15 / mixed_ref=1 / me_range=32 / chroma_me=1 / trellis=2 / 8x8dct=1 / cqm=0 / deadzone=21,11 / fast_pskip=0 / chroma_qp_offset=-3 / threads=12 / lookahead_threads=2 / sliced_threads=0 / nr=0 / decimate=0 / interlaced=0 / bluray_compat=0 / constrained_intra=0 / fgo=0 / bframes=7 / b_pyramid=2 / b_adapt=2 / b_bias=0 / direct=3 / weightb=1 / open_gop=0 / weightp=2 / keyint=250 / keyint_min=25 / scenecut=40 / intra_refresh=0 / rc_lookahead=40 / rc=2pass / mbtree=0 / bitrate=2124 / ratetol=1.0 / qcomp=0.70 / qpmin=0 / qpmax=69 / qpstep=4 / cplxblur=20.0 / qblur=0.5 / vbv_maxrate=50000 / vbv_bufsize=62500 / nal_hrd=none / filler=0 / ip_ratio=1.35 / pb_ratio=1.30 / aq=2:0.50
    Language : Russian
    Default : Yes
    Forced : No
    Color primaries : BT.601 PAL
    Transfer characteristics : BT.470 System B, BT.470 System G
    Matrix coefficients : BT.601
    Color range : Limited
    Audio
    ID : 2
    Format : AC-3
    Format/Info : Audio Coding 3
    Mode extension : CM (complete main)
    Format settings, Endianness : Big
    Codec ID : A_AC3
    Duration : 1h 27mn
    Bit rate mode : Constant
    Bit rate : 256 Kbps
    Channel(s) : 2 channels
    Channel positions : Front: L R
    Sampling rate : 48.0 KHz
    Bit depth : 16 bits
    Compression mode : Lossy
    Stream size : 160 MiB (11%)
    Title : Оригинал AC-3; 16 bits 48 Khz; 2.0ch 256 Kbps; CBR
    Language : Russian
    Default : Yes
    Forced : No
    Скачать .torrent

    Скачать торрент-файл бесплатно и на максимальной скорости!

    Как скачивать? · Что такое торрент? · Рейтинг и ограничения

    !ВНИМАНИЕ!
    Сайт не распространяет и не хранит электронные версии произведений, а занимается лишь лишь предоставлением доступа к создаваемому пользователями каталогу ссылок на торрент-файлы, которые содержат только списки хеш-сумм, убедительная просьба с жалобами обращаться напрямую к пользователю. Файлы для обмена на трекере предоставлены пользователями сайта, и администрация не несёт ответственности за их содержание. Просьба не заливать файлы, защищенные авторскими правами, а также файлы нелегального содержания!


    _________________
    [Профиль] [ЛС]
    Показать сообщения:    
    Ответить на тему

    Текущее время: Сегодня, в 20:58

    Часовой пояс: GMT + 2



    Вы не можете начинать темы
    Вы не можете отвечать на сообщения
    Вы не можете редактировать свои сообщения
    Вы не можете удалять свои сообщения
    Вы не можете голосовать в опросах
    Вы не можете прикреплять файлы к сообщениям
    Вы не можете скачивать файлы