BitTorrentTracker PerecTracker.org
BitTorrentTracker PerecTracker.org
    
Регистрация  ·  Вход
 
 · 
Забыли пароль?

  • Я не вернусь / I won\'t come back (Ильмар Рааг / Ilmar Raag) [2014, Россия, Эстония, Финляндия, Белоруссия, Казахстан, социальная драма, дорожная притча, WEB-DLRip]

    Ответить на тему
     
    Автор Сообщение

    rechyn

    Создавать темы 20-Окт-2015 08:30

           

    [Цитировать]

    Я не вернусь / I won't come back
    Жанр: социальная драма, дорожная притча
    Год выпуска: 2014
    Совместное производство: Россия, Эстония, Финляндия, Белоруссия, Казахстан
    Продолжительность: 01:45:06
    Режиссёр: Ильмар Рааг / Ilmar Raag
    Актёры: Полина Пушкарук, Виктория Лобачева, Андрей Астраханцев, Сергей Яценюк, Ольга Белинская, Алла Еминцева, Александра Лесникова, Юрий Орлов, Галина Мочалова, Татьяна Зыкова, Лиана Сергеева, Дарья Гаврилова, Александр Передков, Наталья Третьякова, Ирина Основина, Людмила Елисеева, Наталья Сизова, Александр Карпухов, Клавдия Белова, Светлана Никифорова, Анна Кисель, Георгий Волчек, Татьяна Бовкалова, Анастасия Боброва, Геннадий Фомин, Виктор Васильев, Марат Омаров, Мария Шенцева и др.
    Краткая аннотация к фильму: ...у одной девочки, были крылья, и она улететь хотела, далеко-далеко... А потом эти крылышки сломались, а их же уже не починить ни как, потому что крылышки, только один раз бог дает, понимаете?...

    Качество видео: WEB-DLRip
    Формат видео: AVI
    Video: 688x288 (2.39:1), 25 fps, XviD build 73 ~855 kbps avg, 0.17 bit/pixel
    Audio: 48 kHz, MPEG Layer 3, 2 ch, ~128.00 kbps avg

    MediaInfo

    ОбщееПолное имя : V:\Я_не_вернусь_2014_WEB-DLRip_[perectracker.org].aviФормат : AVIФормат/Информация : Audio Video InterleaveРазмер файла : 747 МбайтПродолжительность : 1 ч. 45 м.Общий поток : 993 Кбит/секПрограмма кодирования : VirtualDubModRus 1.5.10.2 (build 2542/release)Библиотека кодирования : VirtualDubMod build 2542/release
    ВидеоИдентификатор : 0Формат : MPEG-4 VisualПрофиль формата : Advanced Simple@L5Параметр BVOP формата : 1Параметр QPel формата : НетПараметр GMC формата : Без точки переходаПараметр матрицы формата : ВыборочнаяИдентификатор кодека : DX50Идентификатор кодека/Подсказка : DivX 5Продолжительность : 1 ч. 45 м.Битрейт : 856 Кбит/секШирина : 688 пикселейВысота : 288 пикселейСоотношение сторон : 2,40:1Частота кадров : 25,000 кадров/секЦветовое пространство : YUVСубдискретизация насыщенности : 4:2:0Битовая глубина : 8 битТип развёртки : ПрогрессивнаяМетод сжатия : С потерямиБит/(Пиксели*Кадры) : 0.173Размер потока : 643 Мбайт (86%)Библиотека кодирования : XviD 73
    АудиоИдентификатор : 1Формат : MPEG AudioВерсия формата : Version 1Профиль формата : Layer 3Режим : Joint stereoРасширение режима : MS StereoИдентификатор кодека : 55Идентификатор кодека/Подсказка : MP3Продолжительность : 1 ч. 45 м.Вид битрейта : ПостоянныйБитрейт : 128 Кбит/секКаналы : 2 каналаЧастота : 48,0 КГцМетод сжатия : С потерямиРазмер потока : 96,2 Мбайт (13%)Выравнивание : Соединение по промежуткамПродолжительность промежутка : 40 мс. (1,00 видеокадр)Время предзагрузки промежутка : 504 мс.Библиотека кодирования : LAME3.97Настройки программы : -m j -V 4 -q 2 -lowpass 17 -b 128

    Скриншот c названием фильма

    Скриншоты

    Время раздачи - по возможности.
    Скачать .torrent

    Скачать торрент-файл бесплатно и на максимальной скорости!

    Как скачивать? · Что такое торрент? · Рейтинг и ограничения

    !ВНИМАНИЕ!
    Сайт не распространяет и не хранит электронные версии произведений, а занимается лишь лишь предоставлением доступа к создаваемому пользователями каталогу ссылок на торрент-файлы, которые содержат только списки хеш-сумм, убедительная просьба с жалобами обращаться напрямую к пользователю. Файлы для обмена на трекере предоставлены пользователями сайта, и администрация не несёт ответственности за их содержание. Просьба не заливать файлы, защищенные авторскими правами, а также файлы нелегального содержания!


    _________________
    [Профиль] [ЛС]
    Показать сообщения:    
    Ответить на тему

    Текущее время: Сегодня, в 10:33

    Часовой пояс: GMT + 2



    Вы не можете начинать темы
    Вы не можете отвечать на сообщения
    Вы не можете редактировать свои сообщения
    Вы не можете удалять свои сообщения
    Вы не можете голосовать в опросах
    Вы не можете прикреплять файлы к сообщениям
    Вы не можете скачивать файлы