BitTorrentTracker PerecTracker.org
BitTorrentTracker PerecTracker.org
    
Регистрация  ·  Вход
 
 · 
Забыли пароль?

  • Люси / Lucy (Люк Бессон / Luc Besson) [2014, Франция, боевик, фантастика, BDRip-AVC] Dub (CEE) + Original (Eng) + Subs

    Ответить на тему
     
    Автор Сообщение

    Light

    Создавать темы 20-Окт-2015 00:06

           

    [Цитировать]

    Люси / Lucy
    Она — ключ к тайнам Вселенной
    -Страна: Франция | Canal+ [fr], EuropaCorp
    Жанр: боевик, фантастика
    Год выпуска: 2014
    Продолжительность: 01:29:20 час.
    Перевод: Профессиональный (полное дублирование) - Blu-Ray CEE
    Субтитры: Русские (полные (2 вида), форсированные), Украинские (полные, форсированные), Английские (полные, форсированные, SDH (2 вида), SDH цветные).
    Оригинальная аудиодорожка: Английская
    Навигация по главам: Присутствует (21 глава)
    Режиссер: Люк Бессон / Luc Besson
    В ролях: Скарлетт Йоханссон, Морган Фриман, Чхве Мин Сик, Амр Вакед, Джулиан Райнд-Татт, Йохан Филип Асбек, Анали Типтон, Николас Фонгфет, Ян Оливер Шрёдер, Лука Анджелетти
    Описание: Еще вчера она была просто сексапильной блондинкой, а сегодня - самое опасное и смертоносное создание на планете со сверхъестественными способностями и интеллектом. То, что совсем недавно лучшие умы мира считали фантастической теорией, для нее стало реальностью. И теперь из добычи она превратится в охотницу.
    Ее зовут Люси...

    Качество: BDRip-AVC => Сэмпл | исх. Люси / Lucy (2014) Blu-ray CEE 1080p AVC DTS 5.1-NiP - HDCLUB
    Формат видео: MKV
    Видео: 1132x474p (2.40:1), 23,976 fps, H.264 ~2 517 kbps avg, 0.191 bit/pixel
    Аудио #1: 48 kHz, AC3, 3/2 (L,C,R,l,r) + LFE ch, ~448.00 kbps avg | Профессиональный (полное дублирование) - Blu-Ray CEE
    Аудио #2: 48 kHz, AC3, 3/2 (L,C,R,l,r) + LFE ch, ~448.00 kbps avg | Оригинал (английский)
    Формат субтитров: softsub (SRT)
    MediaInfo | log x264

    log x264

    raw [info]: 1132x474p 1:1 @ 24000/1001 fps (cfr)
    x264 [info]: using SAR=1/1
    x264 [info]: using cpu capabilities: MMX2 SSE2Fast SSSE3 SSE4.2 AVX
    x264 [info]: profile High, level 4.0
    x264 [info]: cabac=1 ref=13 deblock=1:-2:-1 analyse=0x3:0x133 me=umh subme=11 psy=1 fade_compensate=0.00 psy_rd=1.00:0.00 mixed_ref=1 me_range=32 chroma_me=1 trellis=2 8x8dct=1 cqm=0 deadzone=21,11 fast_pskip=0 chroma_qp_offset=-2 threads=6 lookahead_threads=1 sliced_threads=0 nr=0 decimate=1 interlaced=0 bluray_compat=0 constrained_intra=0 fgo=0 bframes=13 b_pyramid=2 b_adapt=2 b_bias=0 direct=1 weightb=1 open_gop=0 weightp=2 keyint=250 keyint_min=23 scenecut=40 intra_refresh=0 rc_lookahead=40 rc=crf mbtree=0 crf=18.7000 qcomp=0.70 qpmin=0 qpmax=69 qpstep=4 vbv_maxrate=20000 vbv_bufsize=25000 crf_max=0.0 nal_hrd=none filler=0 ip_ratio=1.30 pb_ratio=1.20 aq=3:1.05
    x264 [info]: frame I:1353 Avg QP:16.47 size: 67762
    x264 [info]: frame P:28601 Avg QP:17.53 size: 25428
    x264 [info]: frame B:98566 Avg QP:19.00 size: 8800
    x264 [info]: consecutive B-frames: 3.0% 2.6% 8.4% 22.9% 20.1% 30.2% 4.2% 1.8% 1.1% 0.7% 0.6% 2.9% 0.4% 0.9%
    x264 [info]: mb I I16..4: 8.6% 70.3% 21.2%
    x264 [info]: mb P I16..4: 1.1% 12.9% 2.2% P16..4: 28.4% 32.5% 12.5% 2.2% 0.2% skip: 8.0%
    x264 [info]: mb B I16..4: 0.2% 1.5% 0.3% B16..8: 31.7% 20.8% 3.8% direct: 4.9% skip:36.8% L0:42.1% L1:44.0% BI:13.9%
    x264 [info]: 8x8 transform intra:77.9% inter:59.9%
    x264 [info]: coded y,uvDC,uvAC intra: 89.3% 88.9% 69.5% inter: 21.7% 18.8% 3.6%
    x264 [info]: i16 v,h,dc,p: 42% 12% 3% 44%
    x264 [info]: i8 v,h,dc,ddl,ddr,vr,hd,vl,hu: 9% 8% 5% 10% 14% 14% 14% 12% 14%
    x264 [info]: i4 v,h,dc,ddl,ddr,vr,hd,vl,hu: 12% 10% 6% 8% 14% 13% 14% 10% 13%
    x264 [info]: i8c dc,h,v,p: 37% 24% 19% 20%
    x264 [info]: Weighted P-Frames: Y:5.5% UV:3.6%
    x264 [info]: ref P L0: 47.8% 11.3% 17.0% 5.9% 4.8% 3.3% 2.8% 1.5% 1.4% 1.1% 1.1% 0.9% 0.9% 0.2% 0.0%
    x264 [info]: ref B L0: 73.3% 11.7% 5.3% 2.8% 2.0% 1.6% 1.1% 0.7% 0.6% 0.5% 0.3% 0.1%
    x264 [info]: ref B L1: 92.5% 7.5%
    x264 [info]: kb/s:2516.67
    encoded 128520 frames, 3.94 fps, 2516.67 kb/s
    General
    Unique ID : 189102381756416951124496407491415178213 (0x8E43CB40D43D75848B9D217ED674FBE5)
    Complete name : Lucy.2014.BDRip-AVC.Rus.Eng.Subs.by.zOJIOtOi.mkv
    Format : Matroska
    Format version : Version 4 / Version 2
    File size : 2.13 GiB
    Duration : 1h 29mn
    Overall bit rate : 3 415 Kbps
    Encoded date : UTC 2014-11-26 11:52:51
    Writing application : mkvmerge v7.0.0 ('Where We Going') 64bit built on Jun 9 2014 15:16:27
    Writing library : libebml v1.3.0 + libmatroska v1.4.1
    DURATION : 01:20:39.959000000
    NUMBER_OF_FRAMES : 777
    NUMBER_OF_BYTES : 35032
    _STATISTICS_WRITING_APP : mkvmerge v7.0.0 ('Where We Going') 64bit built on Jun 9 2014 15:16:27
    _STATISTICS_WRITING_DATE_UTC : 2014-11-26 11:52:51
    _STATISTICS_TAGS : BPS DURATION NUMBER_OF_FRAMES NUMBER_OF_BYTES
    Attachment : Yes
    Video
    ID : 1
    Format : AVC
    Format/Info : Advanced Video Codec
    Format profile : High@L4.0
    Format settings, CABAC : Yes
    Format settings, ReFrames : 13 frames
    Codec ID : V_MPEG4/ISO/AVC
    Duration : 1h 29mn
    Bit rate : 2 451 Kbps
    Width : 1 132 pixels
    Height : 474 pixels
    Display aspect ratio : 2.40:1
    Frame rate mode : Constant
    Frame rate : 23.976 fps
    Color space : YUV
    Chroma subsampling : 4:2:0
    Bit depth : 8 bits
    Scan type : Progressive
    Bits/(Pixel*Frame) : 0.191
    Stream size : 1.53 GiB (72%)
    Title : Lucy.2014.BDRip-AVC.by.zOJIOtOi
    Writing library : x264 core 142 r2453kMod ea0ca51
    Encoding settings : cabac=1 / ref=13 / deblock=1:-2:-1 / analyse=0x3:0x133 / me=umh / subme=11 / psy=1 / fade_compensate=0.00 / psy_rd=1.00:0.00 / mixed_ref=1 / me_range=32 / chroma_me=1 / trellis=2 / 8x8dct=1 / cqm=0 / deadzone=21,11 / fast_pskip=0 / chroma_qp_offset=-2 / threads=6 / lookahead_threads=1 / sliced_threads=0 / nr=0 / decimate=1 / interlaced=0 / bluray_compat=0 / constrained_intra=0 / fgo=0 / bframes=13 / b_pyramid=2 / b_adapt=2 / b_bias=0 / direct=1 / weightb=1 / open_gop=0 / weightp=2 / keyint=250 / keyint_min=23 / scenecut=40 / intra_refresh=0 / rc_lookahead=40 / rc=crf / mbtree=0 / crf=18.7000 / qcomp=0.70 / qpmin=0 / qpmax=69 / qpstep=4 / vbv_maxrate=20000 / vbv_bufsize=25000 / crf_max=0.0 / nal_hrd=none / filler=0 / ip_ratio=1.30 / pb_ratio=1.20 / aq=3:1.05
    Language : English
    Default : Yes
    Forced : No
    DURATION : 01:29:20.355000000
    NUMBER_OF_FRAMES : 128520
    NUMBER_OF_BYTES : 1686283510
    _STATISTICS_WRITING_APP : mkvmerge v7.0.0 ('Where We Going') 64bit built on Jun 9 2014 15:16:27
    _STATISTICS_WRITING_DATE_UTC : 2014-11-26 11:52:51
    _STATISTICS_TAGS : BPS DURATION NUMBER_OF_FRAMES NUMBER_OF_BYTES
    Color primaries : BT.709
    Transfer characteristics : BT.709
    Matrix coefficients : BT.709
    Audio #1
    ID : 2
    Format : AC-3
    Format/Info : Audio Coding 3
    Mode extension : CM (complete main)
    Format settings, Endianness : Big
    Codec ID : A_AC3
    Duration : 1h 29mn
    Bit rate mode : Constant
    Bit rate : 448 Kbps
    Channel(s) : 6 channels
    Channel positions : Front: L C R, Side: L R, LFE
    Sampling rate : 48.0 KHz
    Bit depth : 16 bits
    Compression mode : Lossy
    Stream size : 286 MiB (13%)
    Title : Профессиональный (полное дублирование) | DD 5.1 @ 448 kbps
    Language : Russian
    Default : Yes
    Forced : No
    Audio #2
    ID : 3
    Format : AC-3
    Format/Info : Audio Coding 3
    Mode extension : CM (complete main)
    Format settings, Endianness : Big
    Codec ID : A_AC3
    Duration : 1h 29mn
    Bit rate mode : Constant
    Bit rate : 448 Kbps
    Channel(s) : 6 channels
    Channel positions : Front: L C R, Side: L R, LFE
    Sampling rate : 48.0 KHz
    Bit depth : 16 bits
    Compression mode : Lossy
    Stream size : 286 MiB (13%)
    Title : Оригинал (английский) | DD 5.1 @ 448 kbps
    Language : English
    Default : No
    Forced : No
    Text #1
    ID : 4
    Format : UTF-8
    Codec ID : S_TEXT/UTF8
    Codec ID/Info : UTF-8 Plain Text
    Title : iTunes
    Language : Russian
    Default : No
    Forced : No
    Text #2
    ID : 5
    Format : UTF-8
    Codec ID : S_TEXT/UTF8
    Codec ID/Info : UTF-8 Plain Text
    Title : Blu-ray CEE
    Language : Russian
    Default : No
    Forced : No
    Text #3
    ID : 6
    Format : UTF-8
    Codec ID : S_TEXT/UTF8
    Codec ID/Info : UTF-8 Plain Text
    Title : Forced
    Language : Russian
    Default : Yes
    Forced : No
    Text #4
    ID : 7
    Format : UTF-8
    Codec ID : S_TEXT/UTF8
    Codec ID/Info : UTF-8 Plain Text
    Title : Blu-ray CEE
    Language : Ukrainian
    Default : No
    Forced : No
    Text #5
    ID : 8
    Format : UTF-8
    Codec ID : S_TEXT/UTF8
    Codec ID/Info : UTF-8 Plain Text
    Title : Forced
    Language : Ukrainian
    Default : No
    Forced : No
    Text #6
    ID : 9
    Format : UTF-8
    Codec ID : S_TEXT/UTF8
    Codec ID/Info : UTF-8 Plain Text
    Title : iTunes
    Language : English
    Default : No
    Forced : No
    Text #7
    ID : 10
    Format : UTF-8
    Codec ID : S_TEXT/UTF8
    Codec ID/Info : UTF-8 Plain Text
    Title : Forced
    Language : English
    Default : No
    Forced : No
    Text #8
    ID : 11
    Format : UTF-8
    Codec ID : S_TEXT/UTF8
    Codec ID/Info : UTF-8 Plain Text
    Title : SDH#1
    Language : English
    Default : No
    Forced : No
    Text #9
    ID : 12
    Format : UTF-8
    Codec ID : S_TEXT/UTF8
    Codec ID/Info : UTF-8 Plain Text
    Title : SDH#2
    Language : English
    Default : No
    Forced : No
    Text #10
    ID : 13
    Format : UTF-8
    Codec ID : S_TEXT/UTF8
    Codec ID/Info : UTF-8 Plain Text
    Title : SDH.COLOR
    Language : English
    Default : No
    Forced : No
    Menu
    00:00:00.000 : :Chapter 01
    00:05:26.367 : :Chapter 02
    00:08:38.267 : :Chapter 03
    00:15:45.903 : :Chapter 04
    00:21:36.295 : :Chapter 05
    00:26:05.397 : :Chapter 06
    00:30:27.534 : :Chapter 07
    00:37:36.254 : :Chapter 08
    00:41:43.459 : :Chapter 09
    00:47:32.558 : :Chapter 10
    00:50:10.716 : :Chapter 11
    00:55:32.495 : :Chapter 12
    00:59:36.072 : :Chapter 13
    01:02:08.099 : :Chapter 14
    01:04:51.345 : :Chapter 15
    01:07:14.030 : :Chapter 16
    01:09:55.816 : :Chapter 17
    01:12:26.133 : :Chapter 18
    01:18:50.600 : :Chapter 19
    01:22:31.571 : :Chapter 20
    01:29:20.146 : :Chapter 21

    Скриншоты



    Релиз групп:
    Скачать .torrent

    Скачать торрент-файл бесплатно и на максимальной скорости!

    Как скачивать? · Что такое торрент? · Рейтинг и ограничения

    !ВНИМАНИЕ!
    Сайт не распространяет и не хранит электронные версии произведений, а занимается лишь лишь предоставлением доступа к создаваемому пользователями каталогу ссылок на торрент-файлы, которые содержат только списки хеш-сумм, убедительная просьба с жалобами обращаться напрямую к пользователю. Файлы для обмена на трекере предоставлены пользователями сайта, и администрация не несёт ответственности за их содержание. Просьба не заливать файлы, защищенные авторскими правами, а также файлы нелегального содержания!


    _________________
    [Профиль] [ЛС]
    Показать сообщения:    
    Ответить на тему

    Текущее время: Сегодня, в 11:10

    Часовой пояс: GMT + 2



    Вы не можете начинать темы
    Вы не можете отвечать на сообщения
    Вы не можете редактировать свои сообщения
    Вы не можете удалять свои сообщения
    Вы не можете голосовать в опросах
    Вы не можете прикреплять файлы к сообщениям
    Вы не можете скачивать файлы