BitTorrentTracker PerecTracker.org
BitTorrentTracker PerecTracker.org
    
Регистрация  ·  Вход
 
 · 
Забыли пароль?

  • Виктор / Viktor (Филиппе Мартинес / Philippe Martinez) [2014, Франция, Россия, боевик, триллер, драма, BDRip-AVC] Dub

    Ответить на тему
     
    Автор Сообщение

    Light

    Создавать темы 19-Окт-2015 19:54

           

    [Цитировать]

    Виктор
    Viktor
    «Отец... он готов на всё»


    Страна: Франция, Россия
    Жанр: боевик, триллер, драма, криминал
    Год выпуска: 2014
    Продолжительность: 01:33:49
    Перевод: Профессиональный (полное дублирование) [Лицензия]
    Cубтитры: нет
    Оригинальная аудиодорожка: нет
    Режиссер: Филиппе Мартинес
    В ролях: Жерар Депардье, Элизабет Хёрли, Эли Данкер, Денис Карасев, Марчелло Маццарелла, Евгения Ахременко, Полина Кузьминская, Марика Гвилава, Алексей Петренко, Жан Баптисте Фильон, Магомед Умаров, Борис Шевченко
    Описание:
    В центре сюжета история бывшего гангстера Виктора Ламбера, специализировавшегося на похищении произведений искусства. Когда-то он жил в России и с тех пор любит эту страну, а также свою бывшую сообщницу Александру Иванову. Проведя пятнадцать лет за решеткой во Франции, Виктор Ламбер возвращается в Москву, чтобы отомстить за смерть своего сына, убитого контрабандистами бриллиантов. Верная подруга Александра помогает ему в этом деле.

    Релиз:
    Автор рипа: Stalker oK
    Сэмпл
    Качество видео: BDRip-AVC [Blu-ray 1080p bluebird]
    Формат видео: MKV
    Видео кодек: AVC
    Аудио кодек: AC3
    Видео: 1768 Кбит/сек, 996x444 (2.25:1), 25 кадр/сек, AVC
    Аудио: 448 Кбит/сек, 48 КГц, 16 бит, 5.1, AC3 BD RUS
    Навигация по главам: есть

    MediaInfo

    General
    Unique ID : 199094465219226801442257974520549010538 (0x95C83300EAD57D2CBAB3843F19B4EC6A)
    Complete name : N:\Rips\Viktor\Viktor.2014.BDRip-AVC.1.45Gb...stalkerok.new-team.mkv
    Format : Matroska
    File size : 1.45 GiB
    Duration : 1h 33mn
    Overall bit rate : 2 218 Kbps
    Movie name : Viktor (2014) (New-Team) (Rip by Stalker oK)
    Encoded date : UTC 2015-10-19 14:37:57
    Writing application : mkvmerge v7.9.0 ('Birds') 64bit
    Writing library : libebml v1.3.1 + libmatroska v1.4.2
    Video
    ID : 1
    Format : AVC
    Format/Info : Advanced Video Codec
    Format profile : High@L4.1
    Format settings, CABAC : Yes
    Format settings, ReFrames : 12 frames
    Codec ID : V_MPEG4/ISO/AVC
    Duration : 1h 33mn
    Bit rate : 1 768 Kbps
    Width : 996 pixels
    Height : 444 pixels
    Display aspect ratio : 2.25:1
    Frame rate : 25.000 fps
    Color space : YUV
    Chroma subsampling : 4:2:0
    Bit depth : 8 bits
    Scan type : Progressive
    Bits/(Pixel*Frame) : 0.160
    Stream size : 1.13 GiB (78%)
    Writing library : x264 core 146 r2538kMod 121396c
    Encoding settings : cabac=1 / ref=12 / deblock=1:-3:-3 / analyse=0x3:0x133 / me=umh / subme=11 / psy=1 / fade_compensate=0.00 / psy_rd=1.00:0.15 / mixed_ref=1 / me_range=48 / chroma_me=1 / trellis=2 / 8x8dct=1 / cqm=0 / deadzone=21,11 / fast_pskip=0 / chroma_qp_offset=-3 / threads=12 / lookahead_threads=3 / sliced_threads=0 / nr=0 / decimate=0 / interlaced=0 / bluray_compat=0 / constrained_intra=0 / fgo=0 / bframes=14 / b_pyramid=2 / b_adapt=2 / b_bias=0 / direct=3 / weightb=1 / open_gop=0 / weightp=2 / keyint=250 / keyint_min=25 / scenecut=40 / intra_refresh=0 / rc_lookahead=40 / rc=2pass / mbtree=0 / bitrate=1768 / ratetol=1.0 / qcomp=0.70 / qpmin=0 / qpmax=69 / qpstep=4 / cplxblur=20.0 / qblur=0.5 / vbv_maxrate=50000 / vbv_bufsize=62500 / nal_hrd=none / filler=0 / ip_ratio=1.40 / pb_ratio=1.30 / aq=3:0.95
    Audio
    ID : 2
    Format : AC-3
    Format/Info : Audio Coding 3
    Mode extension : CM (complete main)
    Codec ID : A_AC3
    Duration : 1h 33mn
    Bit rate mode : Constant
    Bit rate : 448 Kbps
    Channel(s) : 6 channels
    Channel positions : Front: L C R, Side: L R, LFE
    Sampling rate : 48.0 KHz
    Bit depth : 16 bits
    Compression mode : Lossy
    Stream size : 301 MiB (20%)
    Menu
    00:00:00.000 : en:Chapter 1
    00:08:35.040 : en:Chapter 2
    00:16:44.000 : en:Chapter 3
    00:24:02.680 : en:Chapter 4
    00:31:32.040 : en:Chapter 5
    00:40:16.120 : en:Chapter 6
    00:45:00.760 : en:Chapter 7
    00:51:17.360 : en:Chapter 8
    00:59:25.400 : en:Chapter 9
    01:09:27.800 : en:Chapter 10
    01:19:24.280 : en:Chapter 11
    01:27:29.000 : en:Chapter 12

    Скриншоты

    Скачать .torrent

    Скачать торрент-файл бесплатно и на максимальной скорости!

    Как скачивать? · Что такое торрент? · Рейтинг и ограничения

    !ВНИМАНИЕ!
    Сайт не распространяет и не хранит электронные версии произведений, а занимается лишь лишь предоставлением доступа к создаваемому пользователями каталогу ссылок на торрент-файлы, которые содержат только списки хеш-сумм, убедительная просьба с жалобами обращаться напрямую к пользователю. Файлы для обмена на трекере предоставлены пользователями сайта, и администрация не несёт ответственности за их содержание. Просьба не заливать файлы, защищенные авторскими правами, а также файлы нелегального содержания!


    _________________
    [Профиль] [ЛС]
    Показать сообщения:    
    Ответить на тему

    Текущее время: Сегодня, в 20:59

    Часовой пояс: GMT + 2



    Вы не можете начинать темы
    Вы не можете отвечать на сообщения
    Вы не можете редактировать свои сообщения
    Вы не можете удалять свои сообщения
    Вы не можете голосовать в опросах
    Вы не можете прикреплять файлы к сообщениям
    Вы не можете скачивать файлы