BitTorrentTracker PerecTracker.org
BitTorrentTracker PerecTracker.org
    
Регистрация  ·  Вход
 
 · 
Забыли пароль?

  • Пара гнедых (Сергей Крутин) [2009, Мелодрама, DVDRip] R5

    Ответить на тему
     
    Автор Сообщение

    rechyn

    Создавать темы 19-Окт-2015 19:54

           

    [Цитировать]

    Пара гнедыхГод выпуска: 2011
    Страна: Россия
    Киностудия: Пирамида
    Жанр: Мелодрама
    Продолжительность: 01:33:33
    Перевод: Не требуется
    Cубтитры: нет
    Режиссер: Сергей Крутин
    В ролях: Ирина Купченко, Михаил Жигалов, Агния Кузнецова, Ярослав Жалнин, Юрий Степанов, Михаил Горносталь, Ирина Токарчук...
    Описание: По одноименному произведению Александры Камышовой.
    На лето к бабушке Лидии Петровне, которая живет на море, приезжает внучка-студентка Ирина. Между ними непростые отношения: они редко видятся, так как отец Ирины (сын Лидии Петровны) давно умер, а между невесткой и свекровью отношения не сложились с самого начала.
    На первый взгляд бабушка и внучка очень разные. Ирину смешит старомодная деликатность Лидии Петровны, а ту, в свою очередь, тревожит прямолинейность и категоричность внучки. Но постепенно между ними возникают душевная близость, взаимопонимание, и внучка начинает меняться под влиянием бабушки.
    Лидия Петровна пробуждает в юной Ирине женственность, мудрость, деликатность к чужим чувствам и стремлениям. Более того, она незаметно помогает ей рассмотреть в соседском пареньке того мужчину, с которым можно прожить всю жизнь.

    Тип релиза: DVDRip, источник DVD9
    Контейнер: AVI
    Видео: 720x400 (16:9), 25.000 fps, XviD MPEG-4 ~1997 kbps avg, 0.277 bit/pixel
    Аудио: 48 kHz, AC3 2 ch, 224.00 kbps Constant

    MediaInfo

    Общее
    Полное имя : Para.gnedyh.2009.O.DVDRip.avi
    Формат : AVI
    Формат/Информация : Audio Video Interleave
    Размер файла : 1,46 Гбайт
    Продолжительность : 1 ч. 33 м.
    Общий поток : 2231 Кбит/сек
    Программа кодирования : VirtualDubMod 1.5.10.3 | www.virtualdub-fr.org || (build 2550/release)
    Библиотека кодирования : VirtualDubMod build 2550/release
    Видео
    Идентификатор : 0
    Формат : MPEG-4 Visual
    Профиль формата : Advanced Simple@L5
    Параметр BVOP формата : 1
    Параметр QPel формата : Нет
    Параметр GMC формата : Без точки перехода
    Параметр матрицы формата : Выборочная
    Идентификатор кодека : XVID
    Идентификатор кодека/Подсказка : XviD
    Продолжительность : 1 ч. 33 м.
    Битрейт : 1997 Кбит/сек
    Ширина : 720 пикселей
    Высота : 400 пикселей
    Соотношение сторон : 16:9
    Частота кадров : 25,000 кадров/сек
    Цветовое пространство : YUV
    Субдискретизация насыщенности : 4:2:0
    Битовая глубина : 8 бит
    Тип развёртки : Прогрессивная
    Метод сжатия : С потерями
    Бит/(Пиксели*Кадры) : 0.277
    Размер потока : 1,30 Гбайт (90%)
    Библиотека кодирования : XviD 1.2.1 (UTC 2008-12-04)
    Аудио
    Идентификатор : 1
    Формат : AC-3
    Формат/Информация : Audio Coding 3
    Расширение режима : CM (complete main)
    Идентификатор кодека : 2000
    Продолжительность : 1 ч. 33 м.
    Вид битрейта : Постоянный
    Битрейт : 224 Кбит/сек
    Каналы : 2 канала
    Расположение каналов : Front: L R
    Частота : 48,0 КГц
    Битовая глубина : 16 бит
    Метод сжатия : С потерями
    Размер потока : 150 Мбайт (10%)
    Выравнивание : Разделение по промежуткам
    Продолжительность промежутка : 40 мс. (1,00 видеокадр)
    Время предзагрузки промежутка : 500 ms

    Скриншот c названием

    Скриншоты

    Скачать .torrent

    Скачать торрент-файл бесплатно и на максимальной скорости!

    Как скачивать? · Что такое торрент? · Рейтинг и ограничения

    !ВНИМАНИЕ!
    Сайт не распространяет и не хранит электронные версии произведений, а занимается лишь лишь предоставлением доступа к создаваемому пользователями каталогу ссылок на торрент-файлы, которые содержат только списки хеш-сумм, убедительная просьба с жалобами обращаться напрямую к пользователю. Файлы для обмена на трекере предоставлены пользователями сайта, и администрация не несёт ответственности за их содержание. Просьба не заливать файлы, защищенные авторскими правами, а также файлы нелегального содержания!


    _________________
    [Профиль] [ЛС]
    Показать сообщения:    
    Ответить на тему

    Текущее время: Сегодня, в 05:12

    Часовой пояс: GMT + 2



    Вы не можете начинать темы
    Вы не можете отвечать на сообщения
    Вы не можете редактировать свои сообщения
    Вы не можете удалять свои сообщения
    Вы не можете голосовать в опросах
    Вы не можете прикреплять файлы к сообщениям
    Вы не можете скачивать файлы