BitTorrentTracker PerecTracker.org
BitTorrentTracker PerecTracker.org
    
Регистрация  ·  Вход
 
 · 
Забыли пароль?

  • Партизан / Partisan (Эриель Клейман / Ariel Kleiman) [2015, Австралия, триллер, драма, WEB-DLRip] VO (RAIM)

    Ответить на тему
     
    Автор Сообщение

    rechyn

    Создавать темы 19-Окт-2015 19:54

           

    [Цитировать]

    Партизан / PartisanСтрана: Австралия
    Год выпуска: 2015
    Жанр: триллер, драма
    Продолжительность: 01:38:03
    Перевод: Одноголосый закадровый [Райм Закиров]
    Режиссер: Эриель Клейман / Ariel Kleiman
    В ролях: Венсан Кассель, Найджел Барбер, Джереми Чабриел, Флоренсе Мизарра, Тимоти Стайлз, Сапидах Кайн, Сосина Вогаху, Наталья Горбачева, Каталина Хегибас, Ченги Бирлони
    Описание: Речь в фильме пойдет о деспотичном отце семейства, который растит своих детей в изоляции от окружающего мира и прививает им
    человеконенавистническое восприятие общества. Повествование будет вестись от имени 11-летнего мальчика, осуждающего радикальные взгляды на жизнь своего отца.
    http://multi-up.com/1071686
    Качество: WEB-DLRip
    Формат: AVI
    Видео: MPEG-4 Visual, 1765 Кбит/сек, 720 x 304 (2,40:1), 23.976 fps
    Аудио: AC-3, 384 Кбит/сек, 6 каналов, 48,0 КГц

    MI

    Формат : AVI
    Формат/Информация : Audio Video Interleave
    Размер файла : 1,48 Гбайт
    Продолжительность : 1 ч. 38 м.
    Общий поток : 2160 Кбит/сек
    Название фильма : Partisan (2015) WEB-DLRip
    Программа кодирования : Lavf57.3.100
    Библиотека кодирования : VirtualDub build 32706/release
    Видео
    Идентификатор : 0
    Формат : MPEG-4 Visual
    Профиль формата : Advanced Simple@L5
    Параметр BVOP формата : 2
    Параметр QPel формата : Нет
    Параметр GMC формата : Без точки перехода
    Параметр матрицы формата : Default (MPEG)
    Идентификатор кодека : XVID
    Идентификатор кодека/Подсказка : XviD
    Продолжительность : 1 ч. 38 м.
    Битрейт : 1765 Кбит/сек
    Ширина : 720 пикселей
    Высота : 304 пикселя
    Соотношение сторон : 2,40:1
    Частота кадров : 23,976 кадра/сек
    Цветовое пространство : YUV
    Субдискретизация насыщенности : 4:2:0
    Битовая глубина : 8 бит
    Тип развёртки : Прогрессивная
    Метод сжатия : С потерями
    Бит/(Пиксели*Кадры) : 0.336
    Размер потока : 1,21 Гбайт (82%)
    Библиотека кодирования : XviD 67
    Аудио
    Идентификатор : 1
    Формат : AC-3
    Формат/Информация : Audio Coding 3
    Расширение режима : CM (complete main)
    Параметр Endianness формата : Big
    Идентификатор кодека : 2000
    Продолжительность : 1 ч. 38 м.
    Вид битрейта : Постоянный
    Битрейт : 384 Кбит/сек
    Каналы : 6 каналов
    Расположение каналов : Front: L C R, Side: L R, LFE
    Частота : 48,0 КГц
    Битовая глубина : 16 бит
    Метод сжатия : С потерями
    Размер потока : 269 Мбайт (18%)
    Выравнивание : Соединение по промежуткам
    Продолжительность промежутка : 32 мс. (0,77 видеокадр)
    Время предзагрузки промежутка : 512 мс.

    Скриншоты

    Скачать .torrent

    Скачать торрент-файл бесплатно и на максимальной скорости!

    Как скачивать? · Что такое торрент? · Рейтинг и ограничения

    !ВНИМАНИЕ!
    Сайт не распространяет и не хранит электронные версии произведений, а занимается лишь лишь предоставлением доступа к создаваемому пользователями каталогу ссылок на торрент-файлы, которые содержат только списки хеш-сумм, убедительная просьба с жалобами обращаться напрямую к пользователю. Файлы для обмена на трекере предоставлены пользователями сайта, и администрация не несёт ответственности за их содержание. Просьба не заливать файлы, защищенные авторскими правами, а также файлы нелегального содержания!


    _________________
    [Профиль] [ЛС]
    Показать сообщения:    
    Ответить на тему

    Текущее время: Сегодня, в 22:10

    Часовой пояс: GMT + 2



    Вы не можете начинать темы
    Вы не можете отвечать на сообщения
    Вы не можете редактировать свои сообщения
    Вы не можете удалять свои сообщения
    Вы не можете голосовать в опросах
    Вы не можете прикреплять файлы к сообщениям
    Вы не можете скачивать файлы