BitTorrentTracker PerecTracker.org
BitTorrentTracker PerecTracker.org
    
Регистрация  ·  Вход
 
 · 
Забыли пароль?

  • Возвращение на остров Ним / Return to Nim\'s Island (Брендан Мехер / Brendan Maher) [2013, США, семейный, приключения, комедия, HDRip] MVO + Original Eng

    Ответить на тему
     
    Автор Сообщение

    Light

    Создавать темы 19-Окт-2015 11:30

           

    [Цитировать]

    Возвращение на остров Ним / Return to Nim's Island
    Страна: США
    Жанр: семейный, приключения, комедия
    Год выпуска: 2013
    Продолжительность: 01:30:06
    Перевод: Профессиональный (многоголосый закадровый)
    Cубтитры: нет
    Оригинальная аудиодорожка: английский
    Режиссер: Брендан Мехер / Brendan Maher
    В ролях: Бинди Сью Ирвин, Тоби Уоллес, Мэттью Лиллард, Джон Уотерс, Себастьян Грегори, Джек Пирсон, Натан Деррик
    Описание: 14-летняя Ним по-прежнему настроена более чем решительно — она твердо намерена защитить свой остров и его лесных обителей от устроителей курорта и браконьеров. Но теперь героиня понимает, что в столь трудном деле, как спасение ее дома, она не может рассчитывать на помощь лишь одних животных. Так у Ним появляется друг-человек — Эдмунд, который сбежал на остров с материка.
    Доп. информация: Русская дорожка взята с другого трекера, озвучка та же, что была по каналу Дисней.
    Сэмпл: http://multi-up.com/1071823
    Качество видео: HDRip
    Формат видео: AVI
    Видео: MPEG4, XviD, 720x400 (16:9), 23.976 fps, 1 721 Kbps (0.249 bit/pixel)
    Аудио: AC-3, 48.0 KHz, 2 ch, 192 Kbps, CBR - русский
    Аудио 2: AC-3, 48.0 KHz, 6 ch, 384 Kbps, CBR - английский

    MediaInfo

    Общее
    Полное имя : K:\Возвращение на остров Ним.avi
    Формат : AVI
    Формат/Информация : Audio Video Interleave
    Размер файла : 1,45 Гбайт
    Продолжительность : 1 ч. 30 м.
    Общий поток : 2311 Кбит/сек
    Название фильма : Возвращение на остров Ним / Return to Nim's Island (2013)
    Программа кодирования : VirtualDubMod 1.5.10.2 (build 2540/release)
    Библиотека кодирования : VirtualDubMod build 2540/release
    Авторское право : miha2154
    Видео
    Идентификатор : 0
    Формат : MPEG-4 Visual
    Профиль формата : Advanced Simple@L5
    Параметр BVOP формата : 1
    Параметр QPel формата : Нет
    Параметр GMC формата : Без точки перехода
    Параметр матрицы формата : Выборочная
    Идентификатор кодека : XVID
    Идентификатор кодека/Подсказка : XviD
    Продолжительность : 1 ч. 30 м.
    Битрейт : 1721 Кбит/сек
    Ширина : 720 пикселей
    Высота : 400 пикселей
    Соотношение сторон : 16:9
    Частота кадров : 23,976 кадра/сек
    Цветовое пространство : YUV
    Субдискретизация насыщенности : 4:2:0
    Битовая глубина : 8 бит
    Тип развёртки : Прогрессивная
    Метод сжатия : С потерями
    Бит/(Пиксели*Кадры) : 0.249
    Размер потока : 1,08 Гбайт (74%)
    Библиотека кодирования : XviD 65
    Аудио #1
    Идентификатор : 1
    Формат : AC-3
    Формат/Информация : Audio Coding 3
    Расширение режима : CM (complete main)
    Параметр Endianness формата : Big
    Идентификатор кодека : 2000
    Продолжительность : 1 ч. 30 м.
    Вид битрейта : Постоянный
    Битрейт : 192 Кбит/сек
    Каналы : 2 канала
    Расположение каналов : Front: L R
    Частота : 48,0 КГц
    Метод сжатия : С потерями
    Размер потока : 124 Мбайт (8%)
    Выравнивание : Разделение по промежуткам
    Продолжительность промежутка : 42 мс. (1,00 видеокадр)
    Время предзагрузки промежутка : 500 мс.
    Заголовок : Профессиональный (многоголосый закадровый)
    Аудио #2
    Идентификатор : 2
    Формат : AC-3
    Формат/Информация : Audio Coding 3
    Расширение режима : CM (complete main)
    Параметр Endianness формата : Big
    Идентификатор кодека : 2000
    Продолжительность : 1 ч. 30 м.
    Вид битрейта : Постоянный
    Битрейт : 384 Кбит/сек
    Каналы : 6 каналов
    Расположение каналов : Front: L C R, Side: L R, LFE
    Частота : 48,0 КГц
    Метод сжатия : С потерями
    Размер потока : 247 Мбайт (17%)
    Выравнивание : Разделение по промежуткам
    Продолжительность промежутка : 42 мс. (1,00 видеокадр)
    Время предзагрузки промежутка : 500 мс.
    Заголовок : Английский

    Скриншоты


    Скрин с названием

    Скачать .torrent

    Скачать торрент-файл бесплатно и на максимальной скорости!

    Как скачивать? · Что такое торрент? · Рейтинг и ограничения

    !ВНИМАНИЕ!
    Сайт не распространяет и не хранит электронные версии произведений, а занимается лишь лишь предоставлением доступа к создаваемому пользователями каталогу ссылок на торрент-файлы, которые содержат только списки хеш-сумм, убедительная просьба с жалобами обращаться напрямую к пользователю. Файлы для обмена на трекере предоставлены пользователями сайта, и администрация не несёт ответственности за их содержание. Просьба не заливать файлы, защищенные авторскими правами, а также файлы нелегального содержания!


    _________________
    [Профиль] [ЛС]
    Показать сообщения:    
    Ответить на тему

    Текущее время: Сегодня, в 12:29

    Часовой пояс: GMT + 2



    Вы не можете начинать темы
    Вы не можете отвечать на сообщения
    Вы не можете редактировать свои сообщения
    Вы не можете удалять свои сообщения
    Вы не можете голосовать в опросах
    Вы не можете прикреплять файлы к сообщениям
    Вы не можете скачивать файлы