Register  ·  Log in
Forgot password?

  • Мальчики / Boys / Jongens (Миша Камп / Mischa Kamp) [2014, Нидерланды, драма, DVDRip] MVO

    Reply to topic
    Author Message


    Post 19-Oct-2015 12:30



    Мальчики / Boys / Jongens-Страна: Нидерланды
    Жанр: драма, ...
    Год выпуска: 2014
    Продолжительность: 01:17:06
    Перевод: Любительский (многоголосый закадровый) ПРИЧУДИКИ
    Cубтитры: нет
    Оригинальная аудиодорожка: нет
    Режиссер: Миша Камп / Mischa Kamp
    В ролях: Гийс Блом / Gijs Blom, Ко Зандвлиет / Ko Zandvliet, Йонас Смулдерс / Jonas Smulders, Тон Кас / Ton Kas и др.
    Описание: История Сигера, спортивного и довольно тихого 15-летнего мальчика, который, во время подготовки к соревнованиям по легкой атлетике, неожиданно начинает испытывать чувства к одному из членов его команды — Марку…
    Качество видео: DVDRip
    Формат видео: AVI
    Видео: 720x400 (1.80:1), 25 fps, XviD build 50 ~2144 kbps avg, 0.30 bit/pixel
    Аудио: 48 kHz, AC3 Dolby Digital, 3/2 (L,C,R,l,r) + LFE ch, ~448.00 kbps avg


    Complete name : Boys.2014.MVO.XviD.DVDRip.Rus-Pri4udiki.avi
    Format : AVI
    Format/Info : Audio Video Interleave
    File size : 1.40 GiB
    Duration : 1h 17mn
    Overall bit rate : 2 602 Kbps
    Writing application : VirtualDubMod | || (build 2550/release)
    Writing library : VirtualDubMod build 2550/release
    ID : 0
    Format : MPEG-4 Visual
    Format profile : Advanced Simple@L5
    Format settings, BVOP : 1
    Format settings, QPel : No
    Format settings, GMC : No warppoints
    Format settings, Matrix : Default (MPEG)
    Codec ID : XVID
    Codec ID/Hint : XviD
    Duration : 1h 17mn
    Bit rate : 2 144 Kbps
    Width : 720 pixels
    Height : 400 pixels
    Display aspect ratio : 16:9
    Frame rate : 25.000 fps
    Color space : YUV
    Chroma subsampling : 4:2:0
    Bit depth : 8 bits
    Scan type : Progressive
    Compression mode : Lossy
    Bits/(Pixel*Frame) : 0.298
    Stream size : 1.16 GiB (82%)
    Writing library : XviD 1.2.1 (UTC 2008-12-04)
    ID : 1
    Format : AC-3
    Format/Info : Audio Coding 3
    Mode extension : CM (complete main)
    Codec ID : 2000
    Duration : 1h 17mn
    Bit rate mode : Constant
    Bit rate : 448 Kbps
    Channel(s) : 6 channels
    Channel positions : Front: L C R, Side: L R, LFE
    Sampling rate : 48.0 KHz
    Bit depth : 16 bits
    Compression mode : Lossy
    Stream size : 247 MiB (17%)
    Alignment : Split accross interleaves
    Interleave, duration : 40 ms (1.00 video frame)
    Interleave, preload duration : 500 ms

    Скриншот c названием фильма


    Download .torrent

    Download free and at maximum speed!

    How to Download? · What is a torrent? · Ratings and Limitations

    The site does not extend and does not store electronic(digital) versions of products, and only gives access to a reference catalogue created by users on torrent-files which contain only lists of the hash-sums, the earnest entreaty, with complaints(abuse) to access directly to the user. Files for an exchange on tracker are given by users of a site, and the administration does not bear the responsibility for their maintenance. The request to not fill in the files protected by copyrights, and also files of the illegal maintenance!

    [Profile] [PM]
    Display posts from previous:    
    Reply to topic

    The time now is: Today 12:19

    All times are GMT + 3 Hours

    You cannot post new topics in this forum
    You cannot reply to topics in this forum
    You cannot edit your posts in this forum
    You cannot delete your posts in this forum
    You cannot vote in polls in this forum
    You cannot attach files in this forum
    You cannot download files in this forum