BitTorrentTracker PerecTracker.org
BitTorrentTracker PerecTracker.org
    
Регистрация  ·  Вход
 
 · 
Забыли пароль?

  • Тіні забутих Предків / Shadows of Forgotten Ancestors (Сергій Параджанов) [1964 р., драма, мелодрама, музична, DVDRip] Ukr

    Ответить на тему
     
    Автор Сообщение

    older

    Создавать темы 19-Окт-2015 10:31

           

    [Цитировать]

    Тіні забутих Предків / Shadows of Forgotten Ancestors

    Рік випуску: 1964
    Країна: УРСР
    Кіностудія / кінокомпанія: Кіностудія ім. Олександра Довженка
    Жанр: драма, мелодрама, музична
    Тривалість: 01:31:43
    Субтитри: відсутні
    Оригінальна аудіодоріжка: українська-Режисер: Сергій Параджанов
    Сценарій: Іван Чендей, Сергій Параджанов, Михайло Коцюбинський-Світова прем'єра: 4 вересня 1965
    Прем'єра в Україні: 4 вересня 1965
    Реліз на DVD: 10 грудня 2009, «Новий Диск»
    Обмеження за віком: нема- -Актори: Іван Миколайчук, Лариса Кадочникова, Тетяна Бестаєва, Микола Гринько, Олександр Райданов, Неоніла Гнеповська, Олександр Гай, Ніна Алісова, Леонід Єнгібаров, Спартак Багашвілі-Сюжет: Фільм, створений за однойменною повістю Михайла Коцюбинського.
    Десятки років ворогували два гуцульских роди - Палійчуки та Гутенюки. Але сталось так, що Іван Палійчук покохав красуню із ворожого роду - Марічку, якій судилося прожити коротке, але щасливе життя. Не міг без неї бути щасливим Іванко. Але він жив далі. Оженився. Був коханим. Дітей не було. Господарював. І шукав смерть, яка забрала в нього кохану.-Формат: AVI
    Якість: DVDRip
    Відео кодек: XviD
    Відео: 720x544 (4:3), 2209 kbps, 29,970 fps, 0.188 bit/pixel
    Аудіо: AC3, 48 kHz, 6 ch, 448 kbps-Джерело:

    MediaInfo

    Общее
    Полное имя                               : \Тіні забутих Предків.avi
    Формат                                   : AVI
    Формат/Информация                        : Audio Video Interleave
    Размер файла                             : 1,71 Гбайт
    Продолжительность                        : 1 ч. 31 м.
    Общий поток                              : 2669 Кбит/сек
    Режиссёр                                 : vicpryl
    Программа кодирования                    : VirtualDubMod 1.5.10.2 (build 2540/release)
    Библиотека кодирования                   : VirtualDubMod build 2540/release
    Примечание                               : Teni.zabytyh.predkov.RUS.UKR.DVDRip.vicpryl.avi
    Видео
    Идентификатор                            : 0
    Формат                                   : MPEG-4 Visual
    Профиль формата                          : Advanced Simple@L5
    Параметр BVOP формата                    : 1
    Параметр QPel формата                    : Нет
    Параметр GMC формата                     : Без точки перехода
    Параметр матрицы формата                 : Выборочная
    Идентификатор кодека                     : XVID
    Идентификатор кодека/Подсказка           : XviD
    Продолжительность                        : 1 ч. 31 м.
    Битрейт                                  : 2209 Кбит/сек
    Ширина                                   : 720 пикселей
    Высота                                   : 544 пикселя
    Соотношение сторон                       : 4:3
    Частота кадров                           : 29,970 кадров/сек
    Цветовое пространство                    : YUV
    Субдискретизация насыщенности            : 4:2:0
    Битовая глубина                          : 8 бит
    Тип развёртки                            : Прогрессивная
    Метод сжатия                             : С потерями
    Бит/(Пиксели*Кадры)                      : 0.188
    Размер потока                            : 1,42 Гбайт (83%)
    Библиотека кодирования                   : XviD 1.1.2 (UTC 2006-11-01)
    Аудио
    Идентификатор                            : 1
    Формат                                   : AC-3
    Формат/Информация                        : Audio Coding 3
    Расширение режима                        : CM (complete main)
    Параметр Endianness формата              : Big
    Идентификатор кодека                     : 2000
    Продолжительность                        : 1 ч. 31 м.
    Вид битрейта                             : Постоянный
    Битрейт                                  : 448 Кбит/сек
    Каналы                                   : 6 каналов
    Расположение каналов                     : Front: L C R, Side: L R, LFE
    Частота                                  : 48,0 КГц
    Битовая глубина                          : 16 бит
    Метод сжатия                             : С потерями
    Размер потока                            : 294 Мбайт (17%)
    Выравнивание                             : Разделение по промежуткам
    Продолжительность промежутка             : 33  мс. (1,00 видеокадр)
    Время предзагрузки промежутка            : 500  мс.

    Скріншоти

    Скачать .torrent

    Скачать торрент-файл бесплатно и на максимальной скорости!

    Как скачивать? · Что такое торрент? · Рейтинг и ограничения

    !ВНИМАНИЕ!
    Сайт не распространяет и не хранит электронные версии произведений, а занимается лишь лишь предоставлением доступа к создаваемому пользователями каталогу ссылок на торрент-файлы, которые содержат только списки хеш-сумм, убедительная просьба с жалобами обращаться напрямую к пользователю. Файлы для обмена на трекере предоставлены пользователями сайта, и администрация не несёт ответственности за их содержание. Просьба не заливать файлы, защищенные авторскими правами, а также файлы нелегального содержания!


    _________________
    [Профиль] [ЛС]

    -sasha2006

    Создавать темы 19-Окт-2015 19:51 (спустя 9 часов)

           

    [Цитировать]

    Так це шедевр, особливо гра Івана Миколайчука, це щось.

    _________________

    ░▒▓█▀▄▀▄▀▄█▓▒░
    [Профиль] [ЛС]
    Показать сообщения:    
    Ответить на тему

    Текущее время: Сегодня, в 00:37

    Часовой пояс: GMT + 2



    Вы не можете начинать темы
    Вы не можете отвечать на сообщения
    Вы не можете редактировать свои сообщения
    Вы не можете удалять свои сообщения
    Вы не можете голосовать в опросах
    Вы не можете прикреплять файлы к сообщениям
    Вы не можете скачивать файлы