BitTorrentTracker PerecTracker.org
BitTorrentTracker PerecTracker.org
    
Регистрация  ·  Вход
 
 · 
Забыли пароль?

  • Гетьманські клейноди (Леонід Осика, Микола Федюк) [1993 р, драма, мелодрама, історія, VHSRip] Ukr

    Ответить на тему
     
    Автор Сообщение

    older

    Создавать темы 19-Окт-2015 09:05

           

    [Цитировать]

    Гетьманські клейноди

    Рік випуску: 1993
    Країна: Україна
    Кіностудія / кінокомпанія: Національна кіностудія художніх фільмів ім. О.Довженка, Творче об'єднання "Земля"
    Жанр: драма, мелодрама, історія
    Тривалість: 01:23:07
    Субтитри: відсутні
    Оригінальна аудіодоріжка: українська-Режисер: Леонід Осика
    Сценарій: Леонід Осика, Микола Федюк--Актори: Сергій Романюк, Людмила Єфіменко, Лесь Сердюк, Світлана Князєва, Борис Хмельницький, Володимир Коляда, Володимир Голубович, Костянтин Степанков, Таїсія Литвиненко, Владислав Кривоногов, Світлана Круть-Сюжет: За повістю Богдана Лепкого «Крутіж». Дія картини відбувається у 1659 році, коли син Богдана Хмельницького Юрій усунув від влади гетьмана Виговського. Прибічники Богдана Хмельницького намагаються допомогти його дочці Олені врятувати символи гетьманської влади і незалежності України.-Формат: AVI
    Якість: VHSRip
    Відео кодек: DivX 5
    Відео: 704x528 (4:3), 1301 kbps, 25,000 fps, 0.140 bit/pixel
    Аудіо: 48,0 kHz, MPEG Layer 2, 2 ch, 224.00 kbps-Джерело:

    MediaInfo

    Общее
    Полное имя                               : \Гетьманські клейноди.avi
    Формат                                   : DivX
    Формат/Информация                        : Hack of AVI
    Размер файла                             : 855 Мбайт
    Продолжительность                        : 1 ч. 23 м.
    Общий поток                              : 1438 Кбит/сек
    Видео
    Идентификатор                            : 0
    Формат                                   : MPEG-4 Visual
    Параметр BVOP формата                    : 1
    Параметр QPel формата                    : Нет
    Параметр GMC формата                     : Без точки перехода
    Параметр матрицы формата                 : Default (H.263)
    Режим смешивания                         : Сжатый битовый поток
    Идентификатор кодека                     : DX50
    Идентификатор кодека/Подсказка           : DivX 5
    Продолжительность                        : 1 ч. 23 м.
    Битрейт                                  : 1301 Кбит/сек
    Ширина                                   : 704 пикселя
    Высота                                   : 528 пикселей
    Соотношение сторон                       : 4:3
    Частота кадров                           : 25,000 кадров/сек
    Цветовое пространство                    : YUV
    Субдискретизация насыщенности            : 4:2:0
    Битовая глубина                          : 8 бит
    Тип развёртки                            : Прогрессивная
    Метод сжатия                             : С потерями
    Бит/(Пиксели*Кадры)                      : 0.140
    Размер потока                            : 773 Мбайт (90%)
    Заголовок                                : Video
    Библиотека кодирования                   : DivX 6.2.5 (UTC 2006-07)
    Аудио
    Идентификатор                            : 1
    Формат                                   : MPEG Audio
    Версия формата                           : Version 1
    Профиль формата                          : Layer 3
    Режим                                    : Dual mono
    Идентификатор кодека                     : 55
    Идентификатор кодека/Подсказка           : MP3
    Продолжительность                        : 1 ч. 23 м.
    Вид битрейта                             : Постоянный
    Битрейт                                  : 128 Кбит/сек
    Каналы                                   : 2 канала
    Частота                                  : 48,0 КГц
    Метод сжатия                             : С потерями
    Размер потока                            : 76,1 Мбайт (9%)
    Выравнивание                             : Разделение по промежуткам
    Продолжительность промежутка             : 40  мс. (1,00 видеокадр)
    Время предзагрузки промежутка            : 500  мс.
    Заголовок                                : Audio

    Скріншоти

    Скачать .torrent

    Скачать торрент-файл бесплатно и на максимальной скорости!

    Как скачивать? · Что такое торрент? · Рейтинг и ограничения

    !ВНИМАНИЕ!
    Сайт не распространяет и не хранит электронные версии произведений, а занимается лишь лишь предоставлением доступа к создаваемому пользователями каталогу ссылок на торрент-файлы, которые содержат только списки хеш-сумм, убедительная просьба с жалобами обращаться напрямую к пользователю. Файлы для обмена на трекере предоставлены пользователями сайта, и администрация не несёт ответственности за их содержание. Просьба не заливать файлы, защищенные авторскими правами, а также файлы нелегального содержания!


    _________________
    [Профиль] [ЛС]

    older ®

    Создавать темы 19-Окт-2015 09:08 (спустя 2 минуты)

           

    [Цитировать]

    У кого є в кращій якості, поділіться. Або, скажіть де взяти.

    _________________
    [Профиль] [ЛС]
    Показать сообщения:    
    Ответить на тему

    Текущее время: Сегодня, в 01:54

    Часовой пояс: GMT + 2



    Вы не можете начинать темы
    Вы не можете отвечать на сообщения
    Вы не можете редактировать свои сообщения
    Вы не можете удалять свои сообщения
    Вы не можете голосовать в опросах
    Вы не можете прикреплять файлы к сообщениям
    Вы не можете скачивать файлы