BitTorrentTracker PerecTracker.org
BitTorrentTracker PerecTracker.org
    
Регистрация  ·  Вход
 
 · 
Забыли пароль?

  • Владика Андрей (Олесь Янчук) [2008 р., біографія, історія, DVDRip] Ukr

    Ответить на тему
     
    Автор Сообщение

    older

    Создавать темы 19-Окт-2015 08:21

           

    [Цитировать]

    Владика Андрей

    Рік випуску: 2008
    Країна: Україна
    Жанр: біографія, історія
    Тривалість: 02:09:00
    Субтитри: відсутні
    Оригінальна аудіодоріжка: українська-Режисер: Олесь Янчук
    Продюсер: Аскольд Лозинський, Олесь Янчук
    Сценарій: Олесь Янчук, Михайло Шаєвич-Світова прем'єра: 4 вересня 2008
    Прем'єра в Україні: 4 вересня 2008- -Актори: Сергій Романюк, Тарас Постніков, Ірина Мак, Федір Стригун, Євген Нищук, Тарас Жирко, Орест Огородник, Галина Далявська, Лембіт Улфсак, Оксана Вороніна, Вікторія Янчук, Януш Юхнецький, Сергій Сипливий, Віктор Степаненко, Ярослав Мука, Олег Цьона, Олег Треповський, Давид Оксенюк, Анатолій Бевз-Сюжет: В основу фільму покладено біографію митрополита української Греко-Католицької церкви Андрія Шептицького, який протистояв репресіям тоталітарних режимів Сталіна і Гітлера...-Формат: AVI
    Якість: DVDRip
    Відео кодек: XviD
    Відео: 624x384 (16:10), 1324 kbps, 25,000 fps, 0.221 bit/pixel
    Аудіо: AC3, 48 kHz, 2 ch, 224 kbps-Джерело:

    Реліз

    Ріп: by fazza

    MediaInfo

    Общее
    Полное имя                               : G:\Torrents G\Vladyka Andrej_DVDRip_by_fazza.avi
    Формат                                   : AVI
    Формат/Информация                        : Audio Video Interleave
    Размер файла                             : 1,37 Гбайт
    Продолжительность                        : 2 ч. 5 м.
    Общий поток                              : 1555 Кбит/сек
    Программа кодирования                    : VirtualDubMod 1.5.4.1 (build 2178/release)
    Библиотека кодирования                   : VirtualDubMod build 2178/release
    Видео
    Идентификатор                            : 0
    Формат                                   : MPEG-4 Visual
    Профиль формата                          : Advanced Simple@L5
    Параметр BVOP формата                    : 1
    Параметр QPel формата                    : Нет
    Параметр GMC формата                     : Без точки перехода
    Параметр матрицы формата                 : Выборочная
    Идентификатор кодека                     : XVID
    Идентификатор кодека/Подсказка           : XviD
    Продолжительность                        : 2 ч. 5 м.
    Битрейт                                  : 1324 Кбит/сек
    Ширина                                   : 624 пикселя
    Высота                                   : 384 пикселя
    Соотношение сторон                       : 16:10
    Частота кадров                           : 25,000 кадров/сек
    Цветовое пространство                    : YUV
    Субдискретизация насыщенности            : 4:2:0
    Битовая глубина                          : 8 бит
    Тип развёртки                            : Прогрессивная
    Метод сжатия                             : С потерями
    Бит/(Пиксели*Кадры)                      : 0.221
    Размер потока                            : 1,16 Гбайт (85%)
    Библиотека кодирования                   : XviD 1.2.0.dev47 (UTC 2006-11-01)
    Аудио
    Идентификатор                            : 1
    Формат                                   : AC-3
    Формат/Информация                        : Audio Coding 3
    Расширение режима                        : CM (complete main)
    Параметр Endianness формата              : Big
    Идентификатор кодека                     : 2000
    Продолжительность                        : 2 ч. 5 м.
    Вид битрейта                             : Постоянный
    Битрейт                                  : 224 Кбит/сек
    Каналы                                   : 2 канала
    Расположение каналов                     : Front: L R
    Частота                                  : 48,0 КГц
    Битовая глубина                          : 16 бит
    Метод сжатия                             : С потерями
    Размер потока                            : 202 Мбайт (14%)
    Выравнивание                             : Разделение по промежуткам
    Продолжительность промежутка             : 96  мс. (2,40 видеокадра)
    Время предзагрузки промежутка            : 96  мс.
    Язык                                     : English

    Скріншоти

    Скачать .torrent

    Скачать торрент-файл бесплатно и на максимальной скорости!

    Как скачивать? · Что такое торрент? · Рейтинг и ограничения

    !ВНИМАНИЕ!
    Сайт не распространяет и не хранит электронные версии произведений, а занимается лишь лишь предоставлением доступа к создаваемому пользователями каталогу ссылок на торрент-файлы, которые содержат только списки хеш-сумм, убедительная просьба с жалобами обращаться напрямую к пользователю. Файлы для обмена на трекере предоставлены пользователями сайта, и администрация не несёт ответственности за их содержание. Просьба не заливать файлы, защищенные авторскими правами, а также файлы нелегального содержания!


    _________________
    [Профиль] [ЛС]

    older ®

    Создавать темы 19-Окт-2015 08:23 (спустя 2 минуты)

           

    [Цитировать]

    Основний час роздачі: 06:00 - 13:00 UA

    _________________
    [Профиль] [ЛС]
    Показать сообщения:    
    Ответить на тему

    Текущее время: Сегодня, в 12:36

    Часовой пояс: GMT + 2



    Вы не можете начинать темы
    Вы не можете отвечать на сообщения
    Вы не можете редактировать свои сообщения
    Вы не можете удалять свои сообщения
    Вы не можете голосовать в опросах
    Вы не можете прикреплять файлы к сообщениям
    Вы не можете скачивать файлы