BitTorrentTracker PerecTracker.org
BitTorrentTracker PerecTracker.org
    
Регистрация  ·  Вход
 
 · 
Забыли пароль?

  • Картковий будинок / House of Cards / Сезон 1 (1-13 серії з 13) (Джеймс Фоулі, Джон Девід Коулз, Карл Франклін)[2013 р., драма, BDRip] MVO (Студія «Гуртом») Ukr

    Ответить на тему
     
    Автор Сообщение

    older

    Создавать темы 19-Окт-2015 05:49

           

    [Цитировать]

    Картковий будинок / House of Cards / Сезон 1

    Рік випуску: 2013
    Країна: США
    Кіностудія / кінокомпанія: Netflix, Media Rights Capital, Panic Pictures (II), Trigger Street Productions
    Жанр: драма
    Тривалість: 1 серія: ~ 50:00 (цілком серій: 13)
    Субтитри: відсутні
    Переклад: багатоголосий, закадровий (професійний) - Студія «Гуртом»
    Оригінальна аудіодоріжка: українська-Режисер: Джеймс Фоулі, Джон Девід Коулз, Карл Франклін
    Продюсер: Дена Брунетті, Ендрю Девіс, Майкл Доббс
    Сценарій: Кейт Барноу, Білл Кейн, Рік Клівленд-Світова прем'єра: 1 лютого 2013
    Обмеження за віком: 18+- -Актори: Кевін Спейсі, Робін Райт, Кейт Мара, Корі Стол, Майкл Келі, Молі Паркер-Сюжет: Дії «Карткового будинку» відбуваються у Вашинґтоні, де демократ з п'ятого виборчого округу Південної Кароліни та «Голова фракції більшості в парламенті» Френк Андервуд, після відмови йому посади державного секретаря, вирішує помститися тим, хто зрадив його. У головних ролях в серіалі також знялися зірки Робін Райт, Кейт Мара та Корі Стол. Серіал є адаптацією мінісеріалу BBC з такою ж назвою, який знятий за романом Майкла Добса.-Формат: AVI
    Якість: BDRip
    Відео кодек: XviD
    Відео: 720x384 (1,85:1), 1293 kbps, 23.976 fps, 0.195 bit/pixel
    Аудіо: AC3, 48 kHz, 6 ch, 448 kbps-Джерело:

    MediaInfo

    Общее
    Полное имя                               : \House of Cards Season 1 (2013) BDRip [UKR] [Hurtom]\House of Cards S01E01 (2013) BDRip [UKR] [Hurtom].avi
    Формат                                   : AVI
    Формат/Информация                        : Audio Video Interleave
    Размер файла                             : 701 Мбайт
    Продолжительность                        : 55 м.
    Общий поток                              : 1751 Кбит/сек
    Программа кодирования                    : VirtualDubMod 1.5.10.2 (build 2540/release)
    Библиотека кодирования                   : VirtualDubMod build 2540/release
    Видео
    Идентификатор                            : 0
    Формат                                   : MPEG-4 Visual
    Профиль формата                          : Advanced Simple@L5
    Параметр BVOP формата                    : 1
    Параметр QPel формата                    : Нет
    Параметр GMC формата                     : Без точки перехода
    Параметр матрицы формата                 : Выборочная
    Идентификатор кодека                     : XVID
    Идентификатор кодека/Подсказка           : XviD
    Продолжительность                        : 55 м.
    Битрейт                                  : 1293 Кбит/сек
    Ширина                                   : 720 пикселей
    Высота                                   : 384 пикселя
    Соотношение сторон                       : 1,85:1
    Частота кадров                           : 23,976 кадра/сек
    Цветовое пространство                    : YUV
    Субдискретизация насыщенности            : 4:2:0
    Битовая глубина                          : 8 бит
    Тип развёртки                            : Прогрессивная
    Метод сжатия                             : С потерями
    Бит/(Пиксели*Кадры)                      : 0.195
    Размер потока                            : 518 Мбайт (74%)
    Библиотека кодирования                   : XviD 73
    Аудио
    Идентификатор                            : 1
    Формат                                   : AC-3
    Формат/Информация                        : Audio Coding 3
    Расширение режима                        : CM (complete main)
    Параметр Endianness формата              : Big
    Идентификатор кодека                     : 2000
    Продолжительность                        : 55 м.
    Вид битрейта                             : Постоянный
    Битрейт                                  : 448 Кбит/сек
    Каналы                                   : 6 каналов
    Расположение каналов                     : Front: L C R, Side: L R, LFE
    Частота                                  : 48,0 КГц
    Битовая глубина                          : 16 бит
    Метод сжатия                             : С потерями
    Размер потока                            : 179 Мбайт (26%)
    Выравнивание                             : Разделение по промежуткам
    Продолжительность промежутка             : 42  мс. (1,00 видеокадр)
    Время предзагрузки промежутка            : 500  мс.

    Скріншоти

    Скачать .torrent

    Скачать торрент-файл бесплатно и на максимальной скорости!

    Как скачивать? · Что такое торрент? · Рейтинг и ограничения

    !ВНИМАНИЕ!
    Сайт не распространяет и не хранит электронные версии произведений, а занимается лишь лишь предоставлением доступа к создаваемому пользователями каталогу ссылок на торрент-файлы, которые содержат только списки хеш-сумм, убедительная просьба с жалобами обращаться напрямую к пользователю. Файлы для обмена на трекере предоставлены пользователями сайта, и администрация не несёт ответственности за их содержание. Просьба не заливать файлы, защищенные авторскими правами, а также файлы нелегального содержания!


    _________________
    [Профиль] [ЛС]
    Показать сообщения:    
    Ответить на тему

    Текущее время: Сегодня, в 00:16

    Часовой пояс: GMT + 2



    Вы не можете начинать темы
    Вы не можете отвечать на сообщения
    Вы не можете редактировать свои сообщения
    Вы не можете удалять свои сообщения
    Вы не можете голосовать в опросах
    Вы не можете прикреплять файлы к сообщениям
    Вы не можете скачивать файлы