BitTorrentTracker PerecTracker.org
BitTorrentTracker PerecTracker.org
    
Регистрация  ·  Вход
 
 · 
Забыли пароль?

  • Жильцы / The Inhabitants (Майкл Расмуссен / Michael Rasmussen, Шон Расмуссен / Shawn Rasmussen) [2015, США, Ужасы, триллер, HDRip] VO (datynet)

    Ответить на тему
     
    Автор Сообщение

    rechyn

    Создавать темы 19-Окт-2015 03:06

           

    [Цитировать]

    Жильцы / The Inhabitants
    Страна: США
    Жанр: Ужасы, триллер
    Год выпуска: 2015
    Продолжительность: 01:29:44
    Cубтитры: нет
    Перевод: Одноголосый закадровый [datynet], перевод: [Хихикающий Доктор]
    Режиссер: Майкл Расмуссен / Michael Rasmussen, Шон Расмуссен / Shawn Rasmussen
    В ролях: Элиз Кутюр, Майкл Рид, Индиа Пирл, Эдмунд Донован, Ребекка Уитехёрст, Эрика Дерриксон, Тори Наджент
    Описание: Молодые парень и девушка покупают большой дом в Англии. Это место кажется им идеальным для начала совместной жизни. Но стены этого старого дома скрывают ужасный секрет. Вскоре молодые лицом к лицу сталкиваются с ужасом, от которого в жилах стынет кровь. Смогут ли они справиться с непрошеными жильцами своего дома?
    Доп. информация:
    Озвучка: datynet
    Перевод: Хихикающий Доктор
    Сэмпл: http://multi-up.com/1071593
    Качество видео: HDRip
    Формат видео: AVI
    Видео: 720x400 (16:9), 23.976 fps, XviD build 65 ~1824 kbps avg, 0.25 bit/pixel
    Аудио: 48 kHz, MP3, 2/0 ch, ~192 kbps

    MediaInfo

    C:\Users\andreas\Downloads\The.Inhabitants.2015.avi
    General
    Complete name : C:\Users\andreas\Downloads\The.Inhabitants.2015.avi
    Format : AVI
    Format/Info : Audio Video Interleave
    File size : 1.27 GiB
    Duration : 1h 29mn
    Overall bit rate : 2 026 Kbps
    Writing library : VirtualDub build 34753/release
    Video #0
    ID : 0
    Format : MPEG-4 Visual
    Format profile : Advanced Simple@L5
    Format settings, BVOP : 2
    Format settings, QPel : No
    Format settings, GMC : No warppoints
    Format settings, Matrix : Default (H.263)
    Muxing mode : Packed bitstream
    Codec ID : XVID
    Codec ID/Hint : XviD
    Duration : 1h 29mn
    Bit rate : 1 824 Kbps
    Width : 720 pixels
    Height : 400 pixels
    Display aspect ratio : 16:9
    Frame rate : 23.976 fps
    Color space : YUV
    Chroma subsampling : 4:2:0
    Bit depth : 8 bits
    Scan type : Progressive
    Compression mode : Lossy
    Bits/(Pixel*Frame) : 0.264
    Stream size : 1.14 GiB (90%)
    Writing library : XviD 66
    Audio #1
    ID : 1
    Format : MPEG Audio
    Format version : Version 1
    Format profile : Layer 3
    Codec ID : 55
    Codec ID/Hint : MP3
    Duration : 1h 29mn
    Bit rate mode : Constant
    Bit rate : 192 Kbps
    Channel(s) : 2 channels
    Sampling rate : 44.1 KHz
    Compression mode : Lossy
    Stream size : 123 MiB (9%)
    Alignment : Split accross interleaves
    Interleave, duration : 42 ms (1.00 video frame)
    Interleave, preload duration : 500 ms

    Скриншот c названием фильма

    Скриншоты

    Скачать .torrent

    Скачать торрент-файл бесплатно и на максимальной скорости!

    Как скачивать? · Что такое торрент? · Рейтинг и ограничения

    !ВНИМАНИЕ!
    Сайт не распространяет и не хранит электронные версии произведений, а занимается лишь лишь предоставлением доступа к создаваемому пользователями каталогу ссылок на торрент-файлы, которые содержат только списки хеш-сумм, убедительная просьба с жалобами обращаться напрямую к пользователю. Файлы для обмена на трекере предоставлены пользователями сайта, и администрация не несёт ответственности за их содержание. Просьба не заливать файлы, защищенные авторскими правами, а также файлы нелегального содержания!


    _________________
    [Профиль] [ЛС]
    Показать сообщения:    
    Ответить на тему

    Текущее время: Сегодня, в 00:06

    Часовой пояс: GMT + 2



    Вы не можете начинать темы
    Вы не можете отвечать на сообщения
    Вы не можете редактировать свои сообщения
    Вы не можете удалять свои сообщения
    Вы не можете голосовать в опросах
    Вы не можете прикреплять файлы к сообщениям
    Вы не можете скачивать файлы