Register  ·  Log in
Forgot password?

  • Жильцы / The Inhabitants (Майкл Расмуссен / Michael Rasmussen, Шон Расмуссен / Shawn Rasmussen) [2015, США, Ужасы, триллер, HDRip] VO (datynet)

    Reply to topic
    Author Message


    Post 19-Oct-2015 04:06



    Жильцы / The Inhabitants
    Страна: США
    Жанр: Ужасы, триллер
    Год выпуска: 2015
    Продолжительность: 01:29:44
    Cубтитры: нет
    Перевод: Одноголосый закадровый [datynet], перевод: [Хихикающий Доктор]
    Режиссер: Майкл Расмуссен / Michael Rasmussen, Шон Расмуссен / Shawn Rasmussen
    В ролях: Элиз Кутюр, Майкл Рид, Индиа Пирл, Эдмунд Донован, Ребекка Уитехёрст, Эрика Дерриксон, Тори Наджент
    Описание: Молодые парень и девушка покупают большой дом в Англии. Это место кажется им идеальным для начала совместной жизни. Но стены этого старого дома скрывают ужасный секрет. Вскоре молодые лицом к лицу сталкиваются с ужасом, от которого в жилах стынет кровь. Смогут ли они справиться с непрошеными жильцами своего дома?
    Доп. информация:
    Озвучка: datynet
    Перевод: Хихикающий Доктор
    Качество видео: HDRip
    Формат видео: AVI
    Видео: 720x400 (16:9), 23.976 fps, XviD build 65 ~1824 kbps avg, 0.25 bit/pixel
    Аудио: 48 kHz, MP3, 2/0 ch, ~192 kbps


    Complete name : C:\Users\andreas\Downloads\The.Inhabitants.2015.avi
    Format : AVI
    Format/Info : Audio Video Interleave
    File size : 1.27 GiB
    Duration : 1h 29mn
    Overall bit rate : 2 026 Kbps
    Writing library : VirtualDub build 34753/release
    Video #0
    ID : 0
    Format : MPEG-4 Visual
    Format profile : Advanced Simple@L5
    Format settings, BVOP : 2
    Format settings, QPel : No
    Format settings, GMC : No warppoints
    Format settings, Matrix : Default (H.263)
    Muxing mode : Packed bitstream
    Codec ID : XVID
    Codec ID/Hint : XviD
    Duration : 1h 29mn
    Bit rate : 1 824 Kbps
    Width : 720 pixels
    Height : 400 pixels
    Display aspect ratio : 16:9
    Frame rate : 23.976 fps
    Color space : YUV
    Chroma subsampling : 4:2:0
    Bit depth : 8 bits
    Scan type : Progressive
    Compression mode : Lossy
    Bits/(Pixel*Frame) : 0.264
    Stream size : 1.14 GiB (90%)
    Writing library : XviD 66
    Audio #1
    ID : 1
    Format : MPEG Audio
    Format version : Version 1
    Format profile : Layer 3
    Codec ID : 55
    Codec ID/Hint : MP3
    Duration : 1h 29mn
    Bit rate mode : Constant
    Bit rate : 192 Kbps
    Channel(s) : 2 channels
    Sampling rate : 44.1 KHz
    Compression mode : Lossy
    Stream size : 123 MiB (9%)
    Alignment : Split accross interleaves
    Interleave, duration : 42 ms (1.00 video frame)
    Interleave, preload duration : 500 ms

    Скриншот c названием фильма


    Download .torrent

    Download free and at maximum speed!

    How to Download? · What is a torrent? · Ratings and Limitations

    The site does not extend and does not store electronic(digital) versions of products, and only gives access to a reference catalogue created by users on torrent-files which contain only lists of the hash-sums, the earnest entreaty, with complaints(abuse) to access directly to the user. Files for an exchange on tracker are given by users of a site, and the administration does not bear the responsibility for their maintenance. The request to not fill in the files protected by copyrights, and also files of the illegal maintenance!

    [Profile] [PM]
    Display posts from previous:    
    Reply to topic

    The time now is: Today 07:04

    All times are GMT + 3 Hours

    You cannot post new topics in this forum
    You cannot reply to topics in this forum
    You cannot edit your posts in this forum
    You cannot delete your posts in this forum
    You cannot vote in polls in this forum
    You cannot attach files in this forum
    You cannot download files in this forum