BitTorrentTracker PerecTracker.org
BitTorrentTracker PerecTracker.org
    
Регистрация  ·  Вход
 
 · 
Забыли пароль?

  • І мертві підуть / The Walking Dead / Сезон 6 (1-10 серії з 16) (Грег Нікотеро, Ернест Р. Дікерсон, Гай Ферленд) [2015 р., жахи, драма, HDTVRip] MVO (UAteam) Ukr

    Ответить на тему
     
    Автор Сообщение

    older

    Создавать темы 18-Окт-2015 13:48

           

    [Цитировать]

    І мертві підуть / The Walking Dead / Сезон 6
    Рік випуску: 2015
    Країна: США
    Кіностудія / кінокомпанія: AMC
    Жанр: жахи, драма
    Тривалість: 00:44:00 - 1 серія (цілком серій: Х 16)
    Субтитри: відсутні
    Переклад: багатоголосий, закадровий (професійний) - UAteam
    Оригінальна аудіодоріжка: українська-Режисер: Грег Нікотеро, Ернест Р. Дікерсон, Гай Ферленд
    Продюсер: Девід Елперт, Гейл Енн Херд, Денис М. Хуст
    Сценарій: Чарлі Адлард, Френк Дарабонт, Роберт Кіркман-Світова прем'єра: 31 жовтня 2010
    Обмеження за віком: 18+- -Актори: Ендрю Лінкольн, Стівен Єн, Чендлер Ріггс, Норман Рідус, Меліса МакБрайд, Лорен Коен, Скот Вілсон, Данай Гуріра, Емілі Кінні, Девід Моріссі, Чед Л. Коллман-Сюжет: Після страшної хвороби, яка перетворила жителів Землі в зомбі, невелика група поки ще живих людей день у день бореться за виживання в новому, ворожому світі. Під проводом колишнього поліцейського Ріка вони шукають безпечне для життя місце, але зомбі - це не найстрашніше, що їх чекає, основна небезпека - це жорстоке внутрішнє суперництво серед тих, що вижили.-Формат: mp4
    Якість: HDTVRip
    Відео кодек: XviD
    Відео: 720x400 (16:9), ~1000 kbps, 23.976 fps, 0.132 bit/pixel
    Аудіо: AAC, 48 kHz, 2 ch, 128 kbps - UAteam-Джерело:

    MediaInfo

    Общее
    Полное имя                               : \The Walking Dead (Season 6) (2015) HDTVRip [UKR] [Hurtom]\The.Walking.Dead.S06E01.HDTVRip.Ukr.uateam.tv.mp4
    Формат                                   : MPEG-4
    Профиль формата                          : Base Media
    Идентификатор кодека                     : isom
    Размер файла                             : 486 Мбайт
    Продолжительность                        : 1 ч. 4 м.
    Общий поток                              : 1046 Кбит/сек
    Программа кодирования                    : Lavf56.36.100
    Видео
    Идентификатор                            : 1
    Формат                                   : AVC
    Формат/Информация                        : Advanced Video Codec
    Профиль формата                          : High@L4.1
    Параметр CABAC формата                   : Да
    Параметр ReFrames формата                : 5 кадров
    Идентификатор кодека                     : avc1
    Идентификатор кодека/Информация          : Advanced Video Coding
    Продолжительность                        : 1 ч. 4 м.
    Битрейт                                  : 913 Кбит/сек
    Номинальный битрейт                      : 1100 Кбит/сек
    Ширина                                   : 720 пикселей
    Высота                                   : 400 пикселей
    Соотношение сторон                       : 16:9
    Режим частоты кадров                     : Переменный
    Частота кадров                           : 23,976 кадра/сек
    Минимальная частота кадров               : 23,976 кадра/сек
    Максимальная частота кадров              : 24,024 кадра/сек
    Цветовое пространство                    : YUV
    Субдискретизация насыщенности            : 4:2:0
    Битовая глубина                          : 8 бит
    Тип развёртки                            : Прогрессивная
    Бит/(Пиксели*Кадры)                      : 0.132
    Размер потока                            : 424 Мбайт (87%)
    Библиотека кодирования                   : x264 core 146 r2538kMod 121396c
    Настройки программы                      : cabac=1 / ref=5 / deblock=1:0:0 / analyse=0x3:0x113 / me=umh / subme=8 / psy=1 / fade_compensate=0.00 / psy_rd=1.00:0.00 / mixed_ref=1 / me_range=16 / chroma_me=1 / trellis=1 / 8x8dct=1 / cqm=0 / deadzone=21,11 / fast_pskip=1 / chroma_qp_offset=-2 / threads=7 / lookahead_threads=1 / sliced_threads=0 / nr=0 / decimate=1 / interlaced=0 / bluray_compat=0 / constrained_intra=0 / fgo=0 / bframes=3 / b_pyramid=2 / b_adapt=2 / b_bias=0 / direct=3 / weightb=1 / open_gop=0 / weightp=2 / keyint=250 / keyint_min=25 / scenecut=40 / intra_refresh=0 / rc_lookahead=50 / rc=cbr / mbtree=1 / bitrate=1100 / ratetol=1.0 / qcomp=0.60 / qpmin=0 / qpmax=69 / qpstep=4 / vbv_maxrate=1100 / vbv_bufsize=600 / nal_hrd=none / filler=0 / ip_ratio=1.40 / aq=1:1.00
    Аудио
    Идентификатор                            : 2
    Формат                                   : AAC
    Формат/Информация                        : Advanced Audio Codec
    Профиль формата                          : LC
    Идентификатор кодека                     : 40
    Продолжительность                        : 1 ч. 4 м.
    Вид битрейта                             : Постоянный
    Битрейт                                  : 128 Кбит/сек
    Каналы                                   : 2 канала
    Расположение каналов                     : Front: L R
    Частота                                  : 48,0 КГц
    Метод сжатия                             : С потерями
    Размер потока                            : 59,5 Мбайт (12%)
    Меню #1
    Идентификатор                            : 3
    Идентификатор кодека                     : text
    Продолжительность                        : 1 ч. 4 м.
    Язык                                     : English
    Меню #2

    Скріншоти

    Перелік серій

    01. І знову наче вперше / First Time Again
    02. ТТВ / JSS
    03. Дякую / Thank You
    04. Тут - це ніде / Here's Not Here
    05. Зараз / Now
    06. Завжди відповідальний / Always Accountable
    07. Не вдавайся у розпач / Heads Up
    08. Початок кінця / Start to Finish
    09. Безвихідь / No Way Out
    10. Прийдешній світ / The Next World
    11. / Knots Untie 28 лютого
    12. 6 березня
    13. 13 березня
    14. 20 березня
    15. 27 березня
    16. 3 квітня

    Оновлення роздачі

    При кожному додаванні створюється новий торрент. Щоб почати закачування нової серії, користувачам необхідно зробити наступне:
    1. Зупинити скачування.
    2. Видалити старий торрент у себе з клієнта (старі серії видаляти не треба).
    3. Завантажити новий торрент і запустити його у себе в клієнті замість старого, при цьому вказати клієнтові шлях в стару папку куди і має відбуватися скачування нових серій.
    Ваш клієнт при цьому повинен зробити хешування (перевірку) старої папки (якщо не робить сам - допоможіть йому зробити це), і буде докачувати тільки ті серії яких у вас ще немає. Старі серії при цьому не видаляються, а продовжують роздаватись!
    Якщо ви вже видалили старі серії, то запобігти повторну закачку старих серій можна, віджавши галочку у відповідних місцях при запуску нового торрента.
    24.02.16. Роздача оновлена!
    Додані 9-10 серії.
    Перекачати торрент файл!
    Скачать .torrent

    Скачать торрент-файл бесплатно и на максимальной скорости!

    Как скачивать? · Что такое торрент? · Рейтинг и ограничения

    !ВНИМАНИЕ!
    Сайт не распространяет и не хранит электронные версии произведений, а занимается лишь лишь предоставлением доступа к создаваемому пользователями каталогу ссылок на торрент-файлы, которые содержат только списки хеш-сумм, убедительная просьба с жалобами обращаться напрямую к пользователю. Файлы для обмена на трекере предоставлены пользователями сайта, и администрация не несёт ответственности за их содержание. Просьба не заливать файлы, защищенные авторскими правами, а также файлы нелегального содержания!


    _________________


    Последний раз редактировалось: older (2016-02-24 06:31), всего редактировалось 12 раз(а)
    [Профиль] [ЛС]

    older ®

    Создавать темы 21-Окт-2015 08:39 (спустя 2 дня 18 часов)

           

    [Цитировать]

    21.10.15. Роздача оновлена!
    Додана 2 серія.
    Перекачати торрент файл!

    _________________
    [Профиль] [ЛС]

    older ®

    Создавать темы 02-Ноя-2015 11:26 (спустя 12 дней)

           

    [Цитировать]

    02.11.15. Роздача оновлена!
    Додана 3 серія.
    Перекачати торрент файл!

    _________________
    [Профиль] [ЛС]

    older ®

    Создавать темы 07-Ноя-2015 07:11 (спустя 4 дня)

           

    [Цитировать]

    07.11.15. Роздача оновлена!
    Додана 4 серія.
    Перекачати торрент файл!

    _________________
    [Профиль] [ЛС]

    older ®

    Создавать темы 14-Ноя-2015 08:39 (спустя 7 дней)

           

    [Цитировать]

    14.11.15. Роздача оновлена!
    Додана 5 серія.
    Перекачати торрент файл!

    _________________
    [Профиль] [ЛС]

    older ®

    Создавать темы 18-Ноя-2015 11:02 (спустя 4 дня)

           

    [Цитировать]

    18.11.15. Роздача оновлена!
    Додана 6 серія.
    Перекачати торрент файл!

    _________________
    [Профиль] [ЛС]

    older ®

    Создавать темы 26-Ноя-2015 19:09 (спустя 8 дней)

           

    [Цитировать]

    26.11.15. Роздача оновлена!
    Додана 7 серія.
    Перекачати торрент файл!

    _________________
    [Профиль] [ЛС]

    older ®

    Создавать темы 03-Дек-2015 09:08 (спустя 6 дней)

           

    [Цитировать]

    02.12.15. Роздача оновлена!
    Додана 8 серія.
    Перекачати торрент файл!

    _________________
    [Профиль] [ЛС]

    older ®

    Создавать темы 24-Фев-2016 06:31 (спустя 2 месяца 20 дней)

           

    [Цитировать]

    24.02.16. Роздача оновлена!
    Додані 9-10 серії.
    Перекачати торрент файл!

    _________________
    [Профиль] [ЛС]
    Показать сообщения:    
    Ответить на тему

    Текущее время: Сегодня, в 20:38

    Часовой пояс: GMT + 2



    Вы не можете начинать темы
    Вы не можете отвечать на сообщения
    Вы не можете редактировать свои сообщения
    Вы не можете удалять свои сообщения
    Вы не можете голосовать в опросах
    Вы не можете прикреплять файлы к сообщениям
    Вы не можете скачивать файлы