BitTorrentTracker PerecTracker.org
BitTorrentTracker PerecTracker.org
    
Регистрация  ·  Вход
 
 · 
Забыли пароль?

  • Интерстеллар / Interstellar (Кристофер Нолан / Christopher Nolan) [2014, США, Великобритания, Канада, фантастика, драма, приключения, BDRip-AVC] Dub (Rus, Ukr) + MVO (Омикрон) + AVO (Ю.Сербин, Ю.Живов) + Original (Eng) + Subs

    Ответить на тему
     
    Автор Сообщение

    Light

    Создавать темы 18-Окт-2015 10:27

           

    [Цитировать]

    Интерстеллар / Interstellar
    «Следующий шаг человечества станет величайшим»
    -Страна: США, Великобритания, Канада | Warner Bros. Pictures
    Жанр: фантастика, драма, приключения
    Год выпуска: 2014
    Продолжительность: 02:49:03 час.
    Перевод #1: Профессиональный (полное дублирование) - Русский
    Перевод #2: Профессиональный (полное дублирование) - Украинский | отдельно
    Перевод #3: Профессиональный (многоголосый закадровый) - студия "Омикрон"
    Перевод #4: Авторский (одноголосый закадровый) - Юрий Сербин | отдельно
    Перевод #5: Авторский (одноголосый закадровый) - Юрий Живов | отдельно
    Субтитры: Русские (Full, BD, iTunes, Forced, SDH), Английские (Full).
    Оригинальная аудиодорожка: Английская
    Навигация по главам: Присутствует (20 глав)
    Режиссер: Кристофер Нолан / Christopher Nolan
    В ролях: Мэттью МакКонахи, Энн Хэтэуэй, Джессика Честейн, Маккензи Фой, Майкл Кейн, Дэвид Гяси, Уэс Бентли, Кейси Аффлек, Джон Литгоу, Мэтт Дэймон, Тофер Грэйс, Эллен БёрстинОписание:
    Когда засуха приводит человечество к продовольственному кризису, коллектив исследователей и учёных отправляется сквозь червоточину (которая предположительно соединяет области пространства-времени через большое расстояние) в путешествие, чтобы превзойти прежние ограничения для космических путешествий человека и переселить человечество на другую планету.

    Качество: BDRip-AVC => Сэмпл | исх. Interstellar.2014.1080p.BluRay.DTS.x264-HDAccess
    Формат видео: MKV
    Видео: 1152x648 (16:9), 23,976 fps, H.264 ~3 736 kbps avg, 0.204 bit/pixel
    Аудио #1: 48 kHz, AC3, 3/2 (L,C,R,l,r) + LFE ch, ~448.00 kbps avg | Профессиональный (полное дублирование) - Русский
    Аудио #2: 48 kHz, AC3, 3/2 (L,C,R,l,r) + LFE ch, ~448.00 kbps avg | Профессиональный (полное дублирование) - Украинский | отдельно
    Аудио #3: 48 kHz, AC3, 3/2 (L,C,R,l,r) + LFE ch, ~448.00 kbps avg | Профессиональный (многоголосый закадровый) - студия "Омикрон"
    Аудио #4: 48 kHz, AC3, 3/2 (L,C,R,l,r) + LFE ch, ~448.00 kbps avg | Авторский (одноголосый закадровый) - Юрий Сербин | отдельно
    Аудио #5: 48 kHz, AC3, 3/2 (L,C,R,l,r) + LFE ch, ~448.00 kbps avg | Авторский (одноголосый закадровый) - Юрий Живов | отдельно
    Аудио #6: 48 kHz, AC3, 3/2 (L,C,R,l,r) + LFE ch, ~448.00 kbps avg | Оригинал (Английский)
    Формат субтитров: softsub (SRT)
    MediaInfo | log x264

    log x264

    raw [info]: 1152x648p 1:1 @ 24000/1001 fps (cfr)
    x264 [info]: using SAR=1/1
    x264 [info]: using cpu capabilities: MMX2 SSE2Fast SSSE3 SSE4.2 AVX
    x264 [info]: profile High, level 4.1
    x264 [info]: cabac=1 ref=13 deblock=1:-2:-1 analyse=0x3:0x133 me=umh subme=11 psy=1 fade_compensate=0.00 psy_rd=1.00:0.00 mixed_ref=1 me_range=32 chroma_me=1 trellis=2 8x8dct=1 cqm=0 deadzone=21,11 fast_pskip=0 chroma_qp_offset=-2 threads=6 lookahead_threads=1 sliced_threads=0 nr=0 decimate=1 interlaced=0 bluray_compat=0 constrained_intra=0 fgo=0 bframes=13 b_pyramid=2 b_adapt=2 b_bias=0 direct=1 weightb=1 open_gop=0 weightp=2 keyint=250 keyint_min=23 scenecut=40 intra_refresh=0 rc_lookahead=40 rc=crf mbtree=0 crf=18.1000 qcomp=0.65 qpmin=0 qpmax=69 qpstep=4 vbv_maxrate=50000 vbv_bufsize=62500 crf_max=0.0 nal_hrd=none filler=0 ip_ratio=1.40 pb_ratio=1.30 aq=3:1.05
    x264 [info]: frame I:1925 Avg QP:14.38 size: 79595
    x264 [info]: frame P:49273 Avg QP:15.77 size: 37874
    x264 [info]: frame B:192013 Avg QP:17.65 size: 14153
    x264 [info]: consecutive B-frames: 2.0% 1.9% 5.4% 21.6% 16.3% 27.5% 8.7% 8.9% 2.9% 1.5% 1.0% 1.3% 0.6% 0.6%
    x264 [info]: mb I I16..4: 15.3% 66.2% 18.6%
    x264 [info]: mb P I16..4: 0.8% 13.3% 1.4% P16..4: 24.0% 29.8% 12.8% 2.1% 0.2% skip:15.7%
    x264 [info]: mb B I16..4: 0.1% 1.5% 0.1% B16..8: 31.9% 20.2% 4.2% direct: 5.1% skip:37.0% L0:43.8% L1:44.7% BI:11.5%
    x264 [info]: 8x8 transform intra:83.9% inter:57.8%
    x264 [info]: coded y,uvDC,uvAC intra: 89.5% 75.6% 47.5% inter: 26.6% 13.3% 1.0%
    x264 [info]: i16 v,h,dc,p: 39% 12% 22% 27%
    x264 [info]: i8 v,h,dc,ddl,ddr,vr,hd,vl,hu: 9% 8% 10% 10% 13% 12% 14% 11% 14%
    x264 [info]: i4 v,h,dc,ddl,ddr,vr,hd,vl,hu: 9% 15% 6% 8% 14% 12% 14% 9% 12%
    x264 [info]: i8c dc,h,v,p: 33% 33% 18% 16%
    x264 [info]: Weighted P-Frames: Y:9.1% UV:4.6%
    x264 [info]: ref P L0: 43.6% 10.9% 17.3% 6.6% 5.4% 3.8% 3.4% 1.9% 1.8% 1.4% 1.4% 1.1% 1.2% 0.3% 0.0%
    x264 [info]: ref B L0: 70.6% 12.0% 5.8% 3.1% 2.2% 1.8% 1.4% 0.9% 0.8% 0.7% 0.4% 0.2%
    x264 [info]: ref B L1: 92.3% 7.7%
    x264 [info]: kb/s:3735.72
    encoded 243211 frames, 2.73 fps, 3735.72 kb/s
    Общее
    Уникальный идентификатор : 225606425537759676054807298596813738377 (0xA9BA37912C9F132C96F35F1C57591189)
    Полное имя : Interstellar.2014.IMAX.Edition.BDRip-AVC.Rus.Eng.Subs.by.zOJIOtOi.mkv
    Формат : Matroska
    Версия формата : Version 2
    Размер файла : 6,00 Гбайт
    Продолжительность : 2 ч. 49 м.
    Общий поток : 5084 Кбит/сек
    Дата кодирования : UTC 2015-10-13 17:05:07
    Программа кодирования : mkvmerge v5.8.0 ('No Sleep / Pillow') built on Sep 2 2012 15:37:04
    Библиотека кодирования : libebml v1.2.3 + libmatroska v1.3.0
    Attachements : cover.jpg
    Видео
    Идентификатор : 1
    Формат : AVC
    Формат/Информация : Advanced Video Codec
    Профиль формата : High@L4.1
    Параметр CABAC формата : Да
    Параметр ReFrames формата : 10 кадров
    Идентификатор кодека : V_MPEG4/ISO/AVC
    Продолжительность : 2 ч. 49 м.
    Битрейт : 3639 Кбит/сек
    Ширина : 1152 пикселя
    Высота : 648 пикселей
    Соотношение сторон : 16:9
    Режим частоты кадров : Постоянный
    Частота кадров : 23,976 кадра/сек
    Цветовое пространство : YUV
    Субдискретизация насыщенности : 4:2:0
    Битовая глубина : 8 бит
    Тип развёртки : Прогрессивная
    Бит/(Пиксели*Кадры) : 0.203
    Размер потока : 4,30 Гбайт (72%)
    Заголовок : tRuAVC | by zOJIOtOi
    Библиотека кодирования : x264 core 144 r2525kMod 40bb568
    Настройки программы : cabac=1 / ref=10 / deblock=1:-2:-1 / analyse=0x3:0x133 / me=umh / subme=11 / psy=1 / fade_compensate=0.00 / psy_rd=1.00:0.00 / mixed_ref=1 / me_range=32 / chroma_me=1 / trellis=2 / 8x8dct=1 / cqm=0 / deadzone=21,11 / fast_pskip=0 / chroma_qp_offset=-2 / threads=6 / lookahead_threads=1 / sliced_threads=0 / nr=0 / decimate=1 / interlaced=0 / bluray_compat=0 / constrained_intra=0 / fgo=0 / bframes=13 / b_pyramid=2 / b_adapt=2 / b_bias=0 / direct=1 / weightb=1 / open_gop=0 / weightp=2 / keyint=250 / keyint_min=23 / scenecut=40 / intra_refresh=0 / rc_lookahead=40 / rc=crf / mbtree=0 / crf=18.1000 / qcomp=0.65 / qpmin=0 / qpmax=69 / qpstep=4 / vbv_maxrate=50000 / vbv_bufsize=62500 / crf_max=0.0 / nal_hrd=none / filler=0 / ip_ratio=1.40 / pb_ratio=1.30 / aq=3:1.05
    Язык : English
    Default : Да
    Forced : Нет
    Цветовой диапазон : Limited
    Основные цвета : BT.709
    Характеристики трансфера : BT.709
    Коэффициенты матрицы : BT.709
    Аудио #1
    Идентификатор : 2
    Формат : AC-3
    Формат/Информация : Audio Coding 3
    Расширение режима : CM (complete main)
    Параметр Endianness формата : Big
    Идентификатор кодека : A_AC3
    Продолжительность : 2 ч. 49 м.
    Вид битрейта : Постоянный
    Битрейт : 448 Кбит/сек
    Каналы : 6 каналов
    Расположение каналов : Front: L C R, Side: L R, LFE
    Частота : 48,0 КГц
    Метод сжатия : С потерями
    Размер потока : 542 Мбайт (9%)
    Заголовок : Профессиональный (полное дублирование) - CEE | DD 5.1 @ 448 kbps
    Язык : Russian
    Default : Да
    Forced : Нет
    Аудио #2
    Идентификатор : 3
    Формат : AC-3
    Формат/Информация : Audio Coding 3
    Расширение режима : CM (complete main)
    Параметр Endianness формата : Big
    Идентификатор кодека : A_AC3
    Продолжительность : 2 ч. 49 м.
    Вид битрейта : Постоянный
    Битрейт : 448 Кбит/сек
    Каналы : 6 каналов
    Расположение каналов : Front: L C R, Side: L R, LFE
    Частота : 48,0 КГц
    Метод сжатия : С потерями
    Размер потока : 542 Мбайт (9%)
    Заголовок : Профессиональный (многоголосый закадровый) - студия "Омикрон" | DD 5.1 @ 448 kbps
    Язык : Russian
    Default : Нет
    Forced : Нет
    Аудио #3
    Идентификатор : 4
    Формат : AC-3
    Формат/Информация : Audio Coding 3
    Расширение режима : CM (complete main)
    Параметр Endianness формата : Big
    Идентификатор кодека : A_AC3
    Продолжительность : 2 ч. 49 м.
    Вид битрейта : Постоянный
    Битрейт : 448 Кбит/сек
    Каналы : 6 каналов
    Расположение каналов : Front: L C R, Side: L R, LFE
    Частота : 48,0 КГц
    Метод сжатия : С потерями
    Размер потока : 542 Мбайт (9%)
    Заголовок : Оригинал (английский) | DD 5.1 @ 448 kbps
    Язык : English
    Default : Нет
    Forced : Нет
    Текст #1
    Идентификатор : 5
    Формат : UTF-8
    Идентификатор кодека : S_TEXT/UTF8
    Идентификатор кодека/Информация : UTF-8 Plain Text
    Заголовок : Full
    Язык : Russian
    Default : Нет
    Forced : Нет
    Текст #2
    Идентификатор : 6
    Формат : UTF-8
    Идентификатор кодека : S_TEXT/UTF8
    Идентификатор кодека/Информация : UTF-8 Plain Text
    Заголовок : BD
    Язык : Russian
    Default : Нет
    Forced : Нет
    Текст #3
    Идентификатор : 7
    Формат : UTF-8
    Идентификатор кодека : S_TEXT/UTF8
    Идентификатор кодека/Информация : UTF-8 Plain Text
    Заголовок : iTunes
    Язык : Russian
    Default : Нет
    Forced : Нет
    Текст #4
    Идентификатор : 8
    Формат : UTF-8
    Идентификатор кодека : S_TEXT/UTF8
    Идентификатор кодека/Информация : UTF-8 Plain Text
    Заголовок : Forced
    Язык : Russian
    Default : Да
    Forced : Нет
    Текст #5
    Идентификатор : 9
    Формат : UTF-8
    Идентификатор кодека : S_TEXT/UTF8
    Идентификатор кодека/Информация : UTF-8 Plain Text
    Заголовок : SDH
    Язык : Russian
    Default : Нет
    Forced : Нет
    Текст #6
    Идентификатор : 10
    Формат : UTF-8
    Идентификатор кодека : S_TEXT/UTF8
    Идентификатор кодека/Информация : UTF-8 Plain Text
    Заголовок : Full
    Язык : English
    Default : Нет
    Forced : Нет
    Меню
    00:00:00.000 : en:Chapter 1
    00:09:35.492 : en:Chapter 2
    00:17:12.323 : en:Chapter 3
    00:25:00.749 : en:Chapter 4
    00:35:45.393 : en:Chapter 5
    00:42:16.868 : en:Chapter 6
    00:50:19.892 : en:Chapter 7
    00:54:48.076 : en:Chapter 8
    00:58:59.703 : en:Chapter 9
    01:06:15.013 : en:Chapter 10
    01:17:28.185 : en:Chapter 11
    01:25:32.002 : en:Chapter 12
    01:34:32.000 : en:Chapter 13
    01:46:14.702 : en:Chapter 14
    01:55:34.553 : en:Chapter 15
    02:02:14.369 : en:Chapter 16
    02:12:56.844 : en:Chapter 17
    02:20:53.820 : en:Chapter 18
    02:35:12.094 : en:Chapter 19
    02:43:59.830 : en:Chapter 20
    Source vs rip by zOJIOtOi vs rip by IVAN@190282
    source

    rip by zOJIOtOi

    http://screenshotcomparison.com/comparison/147081/picture:4 http://perectracker.org/viewtopic.php?t=5012201

    Скриншоты



    Релиз групп:
    Скачать .torrent

    Скачать торрент-файл бесплатно и на максимальной скорости!

    Как скачивать? · Что такое торрент? · Рейтинг и ограничения

    !ВНИМАНИЕ!
    Сайт не распространяет и не хранит электронные версии произведений, а занимается лишь лишь предоставлением доступа к создаваемому пользователями каталогу ссылок на торрент-файлы, которые содержат только списки хеш-сумм, убедительная просьба с жалобами обращаться напрямую к пользователю. Файлы для обмена на трекере предоставлены пользователями сайта, и администрация не несёт ответственности за их содержание. Просьба не заливать файлы, защищенные авторскими правами, а также файлы нелегального содержания!


    _________________
    [Профиль] [ЛС]
    Показать сообщения:    
    Ответить на тему

    Текущее время: Сегодня, в 10:42

    Часовой пояс: GMT + 2



    Вы не можете начинать темы
    Вы не можете отвечать на сообщения
    Вы не можете редактировать свои сообщения
    Вы не можете удалять свои сообщения
    Вы не можете голосовать в опросах
    Вы не можете прикреплять файлы к сообщениям
    Вы не можете скачивать файлы