BitTorrentTracker PerecTracker.org
BitTorrentTracker PerecTracker.org
    
Регистрация  ·  Вход
 
 · 
Забыли пароль?

  • Секс-видео / Секс-пленка / SX Tape / SXTape (Бернард Роуз) [2013, ужасы, триллер, BDRip] MVO (BadCatStudio) + Original + Sub (Rus, Eng)

    Ответить на тему
     
    Автор Сообщение

    Light

    Создавать темы 18-Окт-2015 10:27

           

    [Цитировать]

    Секс-видео / SXTapeГод выпуска: 2013
    Страна: США
    Жанр: ужасы, триллер
    Продолжительность: 01:24:14
    Перевод: Любительский (многоголосый, закадровый) [BadCatStudio]
    Режиссёр: Бернард Роуз-В ролях: Кекир Фоли, Йен Дункан, Крис Кой, Диана Гарсиа, Джули Ариелла Маркус, Эрик Нил Гутьеррес, Даниэль Фаральдо и др.-Описание: Адам и Джилл, в надежде оживить свои отношения, решают снять интимное видео в старом заброшенном особняке. Внезапно становится очевидным тот факт, что они вовсе не одиноки в этой новой зловещей среде. И вскоре пара понимает, что некоторые секс ленты вообще не стоит снимать, поскольку их странная затея молниеносно превращается в отчаянную борьбу за выживание...
    Внимание! Содержится ненормативная лексика.-Качество: BDRip [Исходник: BDRemux 1080p]
    Формат: AVI
    Видео кодек: XviD
    Аудио кодек: AC3
    Видео: 720x400, 24.000 fps, xvid, 2075 kbps avg, ~0.300 bit/pixel
    Аудио #1: 48 kHz, AC3, 2 ch, 192.00 kbps avg MVO [BadCatStudio]
    Аудио #2: 48 kHz, AC3, 2 ch, 192.00 kbps avg Original
    Субтитры: Русские, Английский-Перевод: rackyoursoul, zveromancer, reutov88
    Закадровый текст читали: Рина Горькая, Владимир Рамазанов, Андрей Зверев, Анна Велес, Георгий Панин, Александр Кузнецов, МираБелла, Гузель Сахабутдинова
    Работа со звуком: Павел Шевчук, Андрей Зверев, Александр Артемов
    Работа с видео: Александр Артемов-Сэмпл / IMDB / КиноПоиск-

    MediaInfo

    Общее
    Полное имя : D:\НБФ\19456\Sxtape.2013.BDRip.400p.Rus.Eng-BadCatStudio\Sxtape.2013.BDRip.400p.Rus.Eng-BadCatStudio.avi
    Формат : AVI
    Формат/Информация : Audio Video Interleave
    Размер файла : 1,46 Гбайт
    Продолжительность : 1 ч. 24 м.
    Общий поток : 2473 Кбит/сек
    Программа кодирования : VirtualDubMod 1.5.10.2 (build 2542/release)
    Библиотека кодирования : VirtualDubMod build 2542/release
    Видео
    Идентификатор : 0
    Формат : MPEG-4 Visual
    Профиль формата : Advanced Simple@L5
    Параметр BVOP формата : 2
    Параметр QPel формата : Нет
    Параметр GMC формата : Без точки перехода
    Параметр матрицы формата : Default (MPEG)
    Идентификатор кодека : XVID
    Идентификатор кодека/Подсказка : XviD
    Продолжительность : 1 ч. 24 м.
    Битрейт : 2075 Кбит/сек
    Ширина : 720 пикселей
    Высота : 400 пикселей
    Соотношение сторон : 1,85:1
    Частота кадров : 24,000 кадра/сек
    Цветовое пространство : YUV
    Субдискретизация насыщенности : 4:2:0
    Битовая глубина : 8 бит
    Тип развёртки : Прогрессивная
    Метод сжатия : С потерями
    Бит/(Пиксели*Кадры) : 0.300
    Размер потока : 1,22 Гбайт (84%)
    Библиотека кодирования : XviD 66
    Аудио #1
    Идентификатор : 1
    Формат : AC-3
    Формат/Информация : Audio Coding 3
    Расширение режима : CM (complete main)
    Параметр Endianness формата : Big
    Идентификатор кодека : 2000
    Продолжительность : 1 ч. 24 м.
    Вид битрейта : Постоянный
    Битрейт : 192 Кбит/сек
    Каналы : 2 канала
    Расположение каналов : Front: L R
    Частота : 48,0 КГц
    Битовая глубина : 16 бит
    Метод сжатия : С потерями
    Размер потока : 116 Мбайт (8%)
    Выравнивание : Разделение по промежуткам
    Продолжительность промежутка : 42 мс. (1,00 видеокадр)
    Время предзагрузки промежутка : 500 мс.
    Аудио #2
    Идентификатор : 2
    Формат : AC-3
    Формат/Информация : Audio Coding 3
    Расширение режима : CM (complete main)
    Параметр Endianness формата : Big
    Идентификатор кодека : 2000
    Продолжительность : 1 ч. 24 м.
    Вид битрейта : Постоянный
    Битрейт : 192 Кбит/сек
    Каналы : 2 канала
    Расположение каналов : Front: L R
    Частота : 48,0 КГц
    Битовая глубина : 16 бит
    Метод сжатия : С потерями
    Размер потока : 116 Мбайт (8%)
    Выравнивание : Разделение по промежуткам
    Продолжительность промежутка : 42 мс. (1,00 видеокадр)
    Время предзагрузки промежутка : 500 мс.

    Скриншоты

    Скачать .torrent

    Скачать торрент-файл бесплатно и на максимальной скорости!

    Как скачивать? · Что такое торрент? · Рейтинг и ограничения

    !ВНИМАНИЕ!
    Сайт не распространяет и не хранит электронные версии произведений, а занимается лишь лишь предоставлением доступа к создаваемому пользователями каталогу ссылок на торрент-файлы, которые содержат только списки хеш-сумм, убедительная просьба с жалобами обращаться напрямую к пользователю. Файлы для обмена на трекере предоставлены пользователями сайта, и администрация не несёт ответственности за их содержание. Просьба не заливать файлы, защищенные авторскими правами, а также файлы нелегального содержания!


    _________________
    [Профиль] [ЛС]
    Показать сообщения:    
    Ответить на тему

    Текущее время: Сегодня, в 02:40

    Часовой пояс: GMT + 2



    Вы не можете начинать темы
    Вы не можете отвечать на сообщения
    Вы не можете редактировать свои сообщения
    Вы не можете удалять свои сообщения
    Вы не можете голосовать в опросах
    Вы не можете прикреплять файлы к сообщениям
    Вы не можете скачивать файлы