BitTorrentTracker PerecTracker.org
BitTorrentTracker PerecTracker.org
    
Регистрация  ·  Вход
 
 · 
Забыли пароль?

  • Справжній детектив (Сезон 2) / True Detective (Season 2) (Кері Фукунага, Джон Краулі, Джастін Лін) [2015 р., детектив, кримінал, трилер, драма, HDTVRip] MVO (НТН) Ukr + Original

    Ответить на тему
     
    Автор Сообщение

    older

    Создавать темы 18-Окт-2015 10:01

           

    [Цитировать]

    Справжній детектив (Сезон 2) / True Detective (Season 2)
    Рік випуску: 2015
    Країна: США
    Кіностудія / кінокомпанія: HBO
    Жанр: детектив, кримінал, трилер, драма
    Тривалість: 1 серія: 58 хвилин (цілком серій: 8)
    Субтитри: відсутні
    Переклад: багатоголосий, закадровий (професійний) - НТН
    Оригінальна аудіодоріжка: українська, англійська-Режисер: Кері Фукунага, Джон Краулі, Джастін Лін
    Продюсер: Річард Браун, Лі Кеплін, Кері Фукунага
    Сценарій: Нік Піццолатто, Scott Lasser, Аманда Овертон-Світова прем'єра: 12 січня 2014
    Обмеження за віком: 18+- -Актори: Меттью МакКонахі, Вуді Харрельсон, Мішель Монахен, Майкл Поттс, Торі Кіттлз, Брюс Елліотт, Медісон Вульф, Рендал Гонсалес, Девід Стівен Мітчелл, Ерік Прайс-Сюжет: Ми живемо у світі, на який заслуговуємо. У новому сезоні культового серіалу глядачів чекають нове розслідування та нові герої. Дивне вбивство, що сталося у Каліфорнії, об'єднує чотирьох персонажів заради полювання на таємничого вбивцю та розкриття тих, чиї накази він виконує.-Формат: AVI
    Якість: HDTVRip
    Відео кодек: XviD
    Відео: 720x400 (16:9), 1802 kbps, 23.976 fps, 0.261 bit/pixel
    Аудіо 1: AC3, 48 kHz, 2 ch, 192 kbps - телеканал: НТН
    Аудіо 2: AC3, 48 kHz, 2 ch, 192 kbps - Original-Джерело:

    MediaInfo

    Общее
    Полное имя                               : \True.Detective.s02.HDTVRip.Ukr.Eng\True.Detective.s02e01.HDTVRip.Ukr.Eng.avi
    Формат                                   : AVI
    Формат/Информация                        : Audio Video Interleave
    Размер файла                             : 958 Мбайт
    Продолжительность                        : 1 ч. 0 м.
    Общий поток                              : 2201 Кбит/сек
    Тема                                     : True Detective. Season 2, Episode 1. The Western Book of the Dead
    Программа кодирования                    : VirtualDubMod 1.5.10.2 (build 2540/release)
    Библиотека кодирования                   : VirtualDubMod build 2540/release
    Видео
    Идентификатор                            : 0
    Формат                                   : MPEG-4 Visual
    Профиль формата                          : Advanced Simple@L5
    Параметр BVOP формата                    : 1
    Параметр QPel формата                    : Нет
    Параметр GMC формата                     : Без точки перехода
    Параметр матрицы формата                 : Default (MPEG)
    Идентификатор кодека                     : XVID
    Идентификатор кодека/Подсказка           : XviD
    Продолжительность                        : 1 ч. 0 м.
    Битрейт                                  : 1802 Кбит/сек
    Ширина                                   : 720 пикселей
    Высота                                   : 400 пикселей
    Соотношение сторон                       : 16:9
    Частота кадров                           : 23,976 кадра/сек
    Цветовое пространство                    : YUV
    Субдискретизация насыщенности            : 4:2:0
    Битовая глубина                          : 8 бит
    Тип развёртки                            : Прогрессивная
    Метод сжатия                             : С потерями
    Бит/(Пиксели*Кадры)                      : 0.261
    Размер потока                            : 785 Мбайт (82%)
    Библиотека кодирования                   : XviD 73
    Аудио #1
    Идентификатор                            : 1
    Формат                                   : AC-3
    Формат/Информация                        : Audio Coding 3
    Расширение режима                        : CM (complete main)
    Параметр Endianness формата              : Big
    Идентификатор кодека                     : 2000
    Продолжительность                        : 1 ч. 0 м.
    Вид битрейта                             : Постоянный
    Битрейт                                  : 192 Кбит/сек
    Каналы                                   : 2 канала
    Расположение каналов                     : Front: L R
    Частота                                  : 48,0 КГц
    Битовая глубина                          : 16 бит
    Метод сжатия                             : С потерями
    Размер потока                            : 83,6 Мбайт (9%)
    Выравнивание                             : Разделение по промежуткам
    Продолжительность промежутка             : 42  мс. (1,00 видеокадр)
    Время предзагрузки промежутка            : 500  мс.
    Заголовок                                : Ukrainian
    Аудио #2
    Идентификатор                            : 2
    Формат                                   : AC-3
    Формат/Информация                        : Audio Coding 3
    Расширение режима                        : CM (complete main)
    Параметр Endianness формата              : Big
    Идентификатор кодека                     : 2000
    Продолжительность                        : 1 ч. 0 м.
    Вид битрейта                             : Постоянный
    Битрейт                                  : 192 Кбит/сек
    Каналы                                   : 2 канала
    Расположение каналов                     : Front: L R
    Частота                                  : 48,0 КГц
    Битовая глубина                          : 16 бит
    Метод сжатия                             : С потерями
    Размер потока                            : 83,6 Мбайт (9%)
    Выравнивание                             : Разделение по промежуткам
    Продолжительность промежутка             : 42  мс. (1,00 видеокадр)
    Время предзагрузки промежутка            : 500  мс.
    Заголовок                                : English

    Скріншоти

    Скачать .torrent

    Скачать торрент-файл бесплатно и на максимальной скорости!

    Как скачивать? · Что такое торрент? · Рейтинг и ограничения

    !ВНИМАНИЕ!
    Сайт не распространяет и не хранит электронные версии произведений, а занимается лишь лишь предоставлением доступа к создаваемому пользователями каталогу ссылок на торрент-файлы, которые содержат только списки хеш-сумм, убедительная просьба с жалобами обращаться напрямую к пользователю. Файлы для обмена на трекере предоставлены пользователями сайта, и администрация не несёт ответственности за их содержание. Просьба не заливать файлы, защищенные авторскими правами, а также файлы нелегального содержания!


    _________________
    [Профиль] [ЛС]
    Показать сообщения:    
    Ответить на тему

    Текущее время: Сегодня, в 02:41

    Часовой пояс: GMT + 2



    Вы не можете начинать темы
    Вы не можете отвечать на сообщения
    Вы не можете редактировать свои сообщения
    Вы не можете удалять свои сообщения
    Вы не можете голосовать в опросах
    Вы не можете прикреплять файлы к сообщениям
    Вы не можете скачивать файлы